.
Авторизация | Регистрация
Хочешь лучшие торренты? Добавь свой email!
Добавить

Торрент скачать бесплатно

» » Когда деревья были большими (1961) DVD5 скачать через торрент бесплатно




    Когда деревья были большими (1961) DVD5 скачать через торрент бесплатно

    Опубликовал: Админ | Дата: 14-08-2015, 04:00 | Просмотров: 167

    Производство: Россия/к/с имени М. Горького
    Жанр: Драма, Мелодрама
    Режиссер: Лев Кулиджанов

    Актеры
    Инна Гулая, Юрий Никулин, Леонид Куравлёв, Екатерина Мазурова, Василий Шукшин, Елена Королёва, Людмила Чурсина, Виктор Павлов, Аркадий Трусов, Ия Маркс, Марина (Мария) Гаврилко, Владимир Лебедев, Евгения Мельникова, Данута Столярская, Павел Шальнов, Виталий Ованесов, Георгий Шаповалов, Вера Орлова, Оля Петрова, Галина Биневская, Георгий Шмованов, Борис Юрченко, Надежда Самсонова, Владимир Смирнов

    Описание

    Потерявший во время войны жену, Кузьма Кузьмич Иорданов начал пить и совершенно опустился. Но однажды, случайно узнав о девочке, потерявшей на войне родителей, Иорданов решил стать ей отцом. Оставив Москву, он отправляется на встречу с будущей дочерью...

    Продолжительность: 01: 35: 23
    Качество видео: DVD5
    Субтитры: Нет
    Дополнительные материалы: Нет
    Видео: MPEG-2, 720x576@768х576, ~7670 kbps
    Аудио: AC3, 2 ch, 128 kbps
    Код:
    Title: Derevja_byli_bolshimi
    Size: 4.36 Gb ( 4 572 622, 00 KBytes ) - DVD-5
    Enabled regions: 1, 2, 3, 4, 5, 6, 7, 8
    VTS_01 :
    Play Length: 00:00:20+00:00:05+00:01:11+00:01:11+00:01:11+01:29:52
    Video: PAL 4:3 (720x576) VBR
    Audio:
    Not specified (Dolby AC3, 2 ch)
    Subtitles:
    Not specified
    * Menus Information *
    VIDEO_TS Menu
    Video:
    NTSC 4:3 (720x480) VBR
    Auto PanScan, Auto Letterboxed
    English Language Unit :
    Title Menu
    VTS_01 Menu
    Video:
    NTSC 4:3 (720x480) VBR
    Auto PanScan, Auto Letterboxed
    English Language Unit :
    Root Menu
    Chapter (PTT) Menu
    Код:

    Общее
    Полное имя : Derevja_byli_bolshimiVIDEO_TSVTS_01_1.VOB
    Формат : MPEG-PS
    Размер файла : 1024 Мбайт
    Продолжительность : 17 м.
    Общий поток : 7956 Кбит/сек
    Видео
    Идентификатор : 224 (0xE0)
    Формат : MPEG Video
    Версия формата : Version 2
    Профиль формата : Main@Main
    Параметр BVOP формата : Да
    Параметр матрицы формата : По умолчанию
    Параметр GOP формата : M=3, N=12
    Продолжительность : 17 м.
    Битрейт : 7670 Кбит/сек
    Максимальный битрейт : 6000 Кбит/сек
    Ширина : 720 пикселей
    Высота : 576 пикселей
    Соотношение сторон : 4:3
    Частота кадров : 25, 000 кадров/сек
    Стандарт вещания : PAL
    Цветовое пространство : YUV
    Субдискретизация насыщенности : 4:2:0
    Битовая глубина : 8 бит
    Тип развёртки : Чересстрочная
    Порядок развёртки : Нижнее поле первое
    Метод сжатия : С потерями
    Бит/(Пиксели*Кадры) : 0.740
    Размер потока : 987 Мбайт (96%)
    Аудио
    Идентификатор : 189 (0xBD)-128 (0x80)
    Формат : AC-3
    Формат/Информация : Audio Coding 3
    Расширение режима : CM (complete main)
    Параметр Endianness формата : Big
    Режим смешивания : DVD-Video
    Продолжительность : 6 с. 16 мс.
    Вид битрейта : Постоянный
    Битрейт : 128 Кбит/сек
    Каналы : 2 канала
    Расположение каналов : Front: L R
    Частота : 48, 0 КГц
    Битовая глубина : 16 бит
    Метод сжатия : С потерями
    Размер потока : 94, 0 Кбайт (0%)
    Меню


    Скриншоты для ознакомления




    Когда деревья были большими (1961) DVD5
    загрузка...
    Рейтинг →
     (голосов: 1, оценка 5/5, голосовать можно 1 раз )

    Другие торренты по теме:

  • Когда деревья были большими (1961) DVDRip [H.264] скачать через торрент бесплатно


    • Комментарии (0):

      Информация

      Информация

        Посетители, находящиеся в группе Гости, не могут оставлять комментарии в данной новости.

        ↓ Меню




        ↓ Опрос

        Вы добавили сайт в закладки?
        Да
        Нет


        Top 10 за месяц (Фильмы)