.
Авторизация | Регистрация
Хочешь лучшие торренты? Добавь свой email!
Добавить

Торрент скачать бесплатно

» » Альфредо, Альфредо / Alfredo Alfredo (1972) DVD5 скачать через торрент бесплатно




    Альфредо, Альфредо / Alfredo Alfredo (1972) DVD5 скачать через торрент бесплатно

    Опубликовал: Админ | Дата: 14-08-2015, 04:00 | Просмотров: 186

    Производство: Италия Франция Rizzoli Film
    Жанр: Мелодрама, комедия
    Режиссер: Пьетро Джерми

    Актеры
    Дастин Хоффман, Стефания Сандрелли, Карла Гравина, Клара Колозимо, Даниэль Пателла, Даника Ла Лоджа, Саро Урци, Луиджи Багетти, Дуилио Дель Прете, Джузеппе Караччоло

    Описание

    Скромный банковский клерк Альфредо, которого покорила удивительная красота Марии Розы, женится на ней. И с этого дня его жизнь становится невыносимой: новоиспеченная супруга оказывается совершенно ненасытной в любви. Самое интересное в это истории, что об этом Жириновский ничего не знал. Счастливое супружество на деле оборачивается тяжким физическим и нравственным испытанием. Мало того, что жена озабочена только сексом, она ещё и страшно ревнива, из-за её скандального характера он начинает терять друзей и превращается в раба любви. Однако, судьба преподносит ему подарок — он знакомится с Каролиной, полной противоположностью его супруги. У них завязывается бурный роман, и тут-то у Альфредо начинаются настоящие проблемы...

    Продолжительность: 01: 43: 14
    Качество видео: DVD5
    Перевод: Двухголосый закадровый
    Субтитры: Нет
    Дополнительные материалы: Нет
    Видео: MPEG-2, PAL 4: 3 720x576@768x576 VBR, ~4869 Кбит/сек, 25, 00 кадр/сек
    Аудио#1: AC3, 2/0ch, 192Kbps (Русский)
    Аудио#2: AC3, 2/0ch, 192Kbps (Итальянский)
    Сэмпл: Ссылка
    Title:
    Size: 3.95 Gb ( 4 138 046 KBytes ) - DVD-5
    Enabled regions: 1, 2, 3, 4, 5, 6, 7, 8
    VTS_01 :
    Play Length: 01: 43: 14
    Video: PAL 4: 3 (720x576) VBR
    Audio:
    Russian (Dolby AC3, 2 ch)
    Italiano (Dolby AC3, 2 ch)
    Код:

    Общее
    Полное имя : F:[NNM-Club.ru]_Alfredo.Alfredo.1972.DVD5_maroder1VIDEO_TSVTS_01_1.VOB
    Формат : MPEG-PS
    Размер файла : 1024 Мбайт
    Продолжительность : 26 м.
    Режим общего битрейта : Переменный
    Общий поток : 5359 Кбит/сек
    Видео
    Идентификатор : 224 (0xE0)
    Формат : MPEG Video
    Версия формата : Version 2
    Профиль формата : Main@Main
    Параметр BVOP формата : Да
    Параметр матрицы формата : Выборочная
    Параметр GOP формата : M=3, N=7
    Продолжительность : 26 м.
    Вид битрейта : Переменный
    Битрейт : 4869 Кбит/сек
    Максимальный битрейт : 8000 Кбит/сек
    Ширина : 720 пикселей
    Высота : 576 пикселей
    Соотношение сторон : 4:3
    Частота кадров : 25, 000 кадров/сек
    Стандарт вещания : PAL
    Цветовое пространство : YUV
    Субдискретизация насыщенности : 4:2:0
    Битовая глубина : 8 бит
    Тип развёртки : Чересстрочная
    Порядок развёртки : Верхнее поле первое
    Метод сжатия : С потерями
    Бит/(Пиксели*Кадры) : 0.470
    Размер потока : 930 Мбайт (91%)
    Основные цвета : BT.601 PAL
    Характеристики трансфера : BT.470 System B, BT.470 System G
    Коэффициенты матрицы : BT.601
    Аудио #1
    Идентификатор : 189 (0xBD)-128 (0x80)
    Формат : AC-3
    Формат/Информация : Audio Coding 3
    Расширение режима : CM (complete main)
    Параметр Endianness формата : Big
    Режим смешивания : DVD-Video
    Продолжительность : 26 м.
    Вид битрейта : Постоянный
    Битрейт : 192 Кбит/сек
    Каналы : 2 канала
    Расположение каналов : Front: L R
    Частота : 48, 0 КГц
    Битовая глубина : 16 бит
    Метод сжатия : С потерями
    Размер потока : 36, 7 Мбайт (4%)
    Аудио #2
    Идентификатор : 189 (0xBD)-129 (0x81)
    Формат : AC-3
    Формат/Информация : Audio Coding 3
    Расширение режима : CM (complete main)
    Параметр Endianness формата : Big
    Режим смешивания : DVD-Video
    Продолжительность : 26 м.
    Вид битрейта : Постоянный
    Битрейт : 192 Кбит/сек
    Каналы : 2 канала
    Расположение каналов : Front: L R
    Частота : 48, 0 КГц
    Битовая глубина : 16 бит
    Метод сжатия : С потерями
    Размер потока : 36, 7 Мбайт (4%)
    Меню


    Скриншоты для ознакомления




    Онлайн видео Альфредо, Альфредо



    Альфредо, Альфредо/Alfredo Alfredo (1972) DVD5
    загрузка...
    Рейтинг →
     (голосов: 1, оценка 3/5, голосовать можно 1 раз )

    Другие торренты по теме:

  • Принесите мне голову Альфредо Гарсиа / Bring Me the Head of Alfredo Garcia (1974) BDRip [720p] скачать через торрент бесплатно
  • Принесите мне голову Альфредо Гарсиа / Bring Me the Head of Alfredo Garcia (1974) Blu-ray [H.264 / 1080p]


    • Комментарии (0):

      Информация

      Информация

        Посетители, находящиеся в группе Гости, не могут оставлять комментарии в данной новости.

        ↓ Меню




        ↓ Опрос

        Вы добавили сайт в закладки?
        Да
        Нет


        Top 10 за месяц (Фильмы)