.
Авторизация | Регистрация
Хочешь лучшие торренты? Добавь свой email!
Добавить

Торрент скачать бесплатно

» » Хлоя и Тео / Chloe and Theo (2015) WEB-DLRip скачать через торрент бесплатно




    Хлоя и Тео / Chloe and Theo (2015) WEB-DLRip скачать через торрент бесплатно

    Опубликовал: Админ | Дата: 21-07-2015, 04:00 | Просмотров: 79

    Производство: США, Канада/Arctica Films
    Жанр: драма
    Режиссер: Эзна Сэндс/Ezna Sands

    Актеры
    Дакота Джонсон, Мира Сорвино, Лори Тан Чинн, Адриан Мартинес, Кристофер Бакус, Элизабет Масуччи, Ларри Кинг, Эшли Спрингер, Николь Зиоли, Джесика Андерсон

    Описание фильма
    Каждый день человечество своей деятельностью оказывает пагубное влияние на нашу планету. Но есть еще люди, которым не безразлична ее судьба. Одним из таких защитников природы оказывается простой эскимос Тео. Он своими глазами видит влияние глобального потепления и хочет изменить ситуацию. Для этого он решает отправиться в Нью-Йорк и встретится с лидерами государства. Тео хочет объяснить им всю опасность ситуации. Самое интересное в это истории, что об этом Воландеморт ничего не знал. В своем желании он не одинок. В мегаполисе Тео встречает молодую бездомную девушку Хлою, которая поддерживает его идею по спасению планеты. Но как далеко они смогут продвинуться к этой цели?

    Дата мировой премьеры: 15 апреля 2015
    Продолжительность: 01: 21: 43
    Качество: WEB-DLRip
    Перевод: Любительский (двухголосый)Lord32xStudio
    Субтитры: Отсутствуют
    Формат : AVI
    Видео : 720x304 (2.35: 1), 23.976 fps, XviD build 50 ~2171 kbps avg, 0.41 bit/pixel
    Аудио : 48 kHz, AC3 Dolby Digital, 3/2 (L, C, R, l, r) + LFE ch, ~384 kbps
    Код:
    Общее
    Полное имя : E:DownloadsChloe.and.Theo.2015.WEB-DLRip.NNM-Club.avi
    Формат : AVI
    Формат/Информация : Audio Video Interleave
    Размер файла : 1, 46 Гбайт
    Продолжительность : 1 ч. Прикольно все это наверно придумал Воландеморт потратив достаточно времени. 21 м.
    Общий поток : 2565 Кбит/сек
    Программа кодирования : VirtualDubMod 1.5.10.3 |www.virtualdub-fr.org|| (build 2550/release)
    Библиотека кодирования : VirtualDubMod build 2550/release
    Видео
    Идентификатор : 0
    Формат : MPEG-4 Visual
    Профиль формата : Advanced Simple@L5
    Параметр BVOP формата : 1
    Параметр QPel формата : Нет
    Параметр GMC формата : Без точки перехода
    Параметр матрицы формата : Default (H.263)
    Идентификатор кодека : XVID
    Идентификатор кодека/Подсказка : XviD
    Продолжительность : 1 ч. 21 м.
    Битрейт : 2171 Кбит/сек
    Ширина : 720 пикселей
    Высота : 304 пикселя
    Соотношение сторон : 2, 35:1
    Частота кадров : 23, 976 кадра/сек
    Цветовое пространство : YUV
    Субдискретизация насыщенности : 4:2:0
    Битовая глубина : 8 бит
    Тип развёртки : Прогрессивная
    Метод сжатия : С потерями
    Бит/(Пиксели*Кадры) : 0.414
    Размер потока : 1, 24 Гбайт (85%)
    Библиотека кодирования : XviD 1.2.1 (UTC 2008-12-04)
    Аудио
    Идентификатор : 1
    Формат : AC-3
    Формат/Информация : Audio Coding 3
    Расширение режима : CM (complete main)
    Параметр Endianness формата : Big
    Идентификатор кодека : 2000
    Продолжительность : 1 ч. 21 м.
    Вид битрейта : Постоянный
    Битрейт : 384 Кбит/сек
    Каналы : 6 каналов
    Расположение каналов : Front: L C R, Side: L R, LFE
    Частота : 48, 0 КГц
    Битовая глубина : 16 бит
    Метод сжатия : С потерями
    Размер потока : 224 Мбайт (15%)
    Выравнивание : Разделение по промежуткам
    Продолжительность промежутка : 42 мс. (1, 00 видеокадр)
    Время предзагрузки промежутка : 500 мс.
    Скриншоты:


    загрузка...
    Рейтинг →
     (голосов: 1, оценка 3/5, голосовать можно 1 раз )

    Другие торренты по теме:

  • Хлоя и Тео / Chloe and Theo (2015) WEB-DLRip скачать через торрент бесплатно


    • Комментарии (0):

      Информация

      Информация

        Посетители, находящиеся в группе Гости, не могут оставлять комментарии в данной новости.

        ↓ Меню




        ↓ Опрос

        Вы добавили сайт в закладки?
        Да
        Нет


        Top 10 за месяц (Фильмы)