.
Авторизация | Регистрация
Хочешь лучшие торренты? Добавь свой email!
Добавить

Торрент скачать бесплатно

» » Единичка (2015) DVD5 скачать через торрент бесплатно




    Единичка (2015) DVD5 скачать через торрент бесплатно

    Опубликовал: Админ | Дата: 5-07-2015, 04:00 | Просмотров: 146

    Производство: Россия/Марс Медиа Энтертейнмент
    Жанр: Военный, драма
    Режиссер: Кирилл Белевич
    Продюсеры: Рубен Дишдишян, Елена Денисевич, Дмитрий Голубничий

    Актеры
    Андрей Мерзликин, Илья Коробко, Анна Прус, Арина Борисова, Александр Вершинин, Михаил Евланов, Микаэл Джанибекян, Сергей Габриэлян, Добрыня Белевич-Оболенский, Якуб Здруйковский

    Описание

    Август 1944-го. Советские войска продолжают наступление в Восточной Польше. Подразделение старшего лейтенанта Егорова получает задание — удержать мост, через который планируется переправа частей Советской Армии. Прибыв на позицию, бойцы обнаруживают разрушенный монастырь, а в нем — группу глухих сирот с воспитательницей Евой.
    Утратив веру, она нашла смысл жизни в спасении немощных и беззащитных детей. Лейтенант Егоров оказывается перед сложным выбором — выполняя приказ командования, он будет вынужден поставить под угрозу жизнь маленьких поляков. Артиллеристы изо всех сил стараются не допустить смерти детей…

    Дата российской премьеры: 11 июня 2015, Кинологистика
    Продолжительность: 01: 44: 55
    Качество видео: DVD5
    Перевод: Не требуется (русский)лицензия
    Субтитры: Отсутствуют
    Видеокодек: MPEG-2
    Битрейт видео: ~5500 Кбит/сек
    Размер кадра: 720x576@1024x576 (PAL 16: 9)
    Аудиокодек: AC3 5.1
    Битрейт аудио: 448 Кбит/сек
    Доп. материалы: Создатели и как размытая картина исполнители
    Title: Единичка (2015) DVD5
    Size: 4.37 Gb ( 4 586 260, 00 KBytes ) - DVD-5
    Enabled regions: 1, 2, 3, 4, 5, 6, 7, 8
    VTS_01 :
    Play Length: 00: 00: 00
    Video: PAL 4: 3 (720x576) VBR
    VTS_02 :
    Play Length: 01: 44: 55
    Video: PAL 16: 9 (720x576) VBR, Auto Letterboxed
    Audio:
    Russian (Dolby AC3, 6 ch)
    * Menus Information *
    VIDEO_TS Menu
    Video:
    NTSC 4: 3 (720x480) VBR
    Auto PanScan, Auto Letterboxed
    English Language Unit :
    Title Menu
    VTS_01 Menu
    Video:
    PAL 16: 9 (720x576) VBR
    Auto Letterboxed
    Audio:
    Not specified (Dolby AC3, 2 ch)
    English Language Unit :
    Root Menu
    Angle menu
    VTS_02 Menu
    Video:
    PAL 4: 3 (720x576) VBR
    English Language Unit :
    Root Menu
    Общее
    Полное имя : G: ВидеоЕдиничка (2015) DVD5VIDEO_TSVTS_02_2.VOB
    Формат : MPEG-PS
    Размер файла : 1024 Мбайт
    Продолжительность : 23 м.
    Режим общего битрейта : Переменный
    Общий поток : 6101 Кбит/сек
    Видео
    Идентификатор : 224 (0xE0)
    Формат : MPEG Video
    Версия формата : Version 2
    Профиль формата : Main@Main
    Параметр BVOP формата : Да
    Параметр матрицы формата : Выборочная
    Параметр GOP формата : M=3, N=12
    Продолжительность : 23 м.
    Вид битрейта : Переменный
    Битрейт : 5531 Кбит/сек
    Максимальный битрейт : 9000 Кбит/сек
    Ширина : 720 пикселей
    Высота : 576 пикселей
    Соотношение сторон : 16: 9
    Частота кадров : 25, 000 кадров/сек
    Стандарт вещания : PAL
    Цветовое пространство : YUV
    Субдискретизация насыщенности : 4: 2: 0
    Битовая глубина : 8 бит
    Тип развёртки : Прогрессивная
    Порядок развёртки : Нижнее поле первое
    Метод сжатия : С потерями
    Бит/(Пиксели*Кадры) : 0.534
    Временной код первого кадра : 00: 23: 46: 07
    Оригинал временного кода : Group of pictures t_head
    GOP, открыто/закрыто : Открыто
    GOP, открыто/закрыто на первом кадре : Закрыто
    Размер потока : 928 Мбайт (91%)
    Аудио
    Идентификатор : 189 (0xBD)-128 (0x80)
    Формат : AC-3
    Формат/Информация : Audio Coding 3
    Расширение режима : CM (complete main)
    Параметр Endianness формата : Big
    Режим смешивания : DVD-Video
    Продолжительность : 23 м.
    Вид битрейта : Постоянный
    Битрейт : 448 Кбит/сек
    Каналы : 6 каналов
    Расположение каналов : Front: L C R, Side: L R, LFE
    Частота : 48, 0 КГц
    Битовая глубина : 16 бит
    Метод сжатия : С потерями
    Задержка видео : -488 мс.
    Размер потока : 75, 2 Мбайт (7%)
    Меню
    Исходник: Единичка (2015) DVD9
    Удалены: некоторые VTS, предупреждающая надпись, трейлер.
    Команды диска переписаны заново.
    Видео сжато на 22, 9%
    Обработка и сжатие: DVD ReMake Pro + DVD Rebuilder + CCE SP2 7 проходов.

    Скриншоты для ознакомления



    загрузка...
    Рейтинг →
     (голосов: 1, оценка 5/5, голосовать можно 1 раз )

    Другие торренты по теме:

  • Боевая единичка / Единичка (2015) SATRip (серии 1-4 из 4)
  • Единичка (2015) DVDRip [H.264] скачать через торрент бесплатно
  • Единичка (2015) DVDRip скачать через торрент бесплатно
  • Единичка (2015) DVD9 скачать через торрент бесплатно
  • Единичка (2015) DVDRip скачать через торрент бесплатно
  • Единичка (2015) DVDRip скачать через торрент бесплатно
  • Единичка (2015) DVDRip [H.264] скачать через торрент бесплатно
  • Единичка (2015) WEB-DL [H.264 / 1080p-LQ] скачать через торрент бесплатно


    • Комментарии (0):

      Информация

      Информация

        Посетители, находящиеся в группе Гости, не могут оставлять комментарии в данной новости.

        ↓ Меню




        ↓ Опрос

        Вы добавили сайт в закладки?
        Да
        Нет


        Top 10 за месяц (Фильмы)