.
Авторизация | Регистрация
Хочешь лучшие торренты? Добавь свой email!
Добавить

Торрент скачать бесплатно

» » На паузе / Standby (2014) BDRip [H.264 / 720p] [EN] скачать через торрент бесплатно




    На паузе / Standby (2014) BDRip [H.264 / 720p] [EN] скачать через торрент бесплатно

    Опубликовал: Админ | Дата: 20-06-2015, 04:00 | Просмотров: 108

    Производство: Ирландия, Люксембург, Juliette Films, Paul Thiltges Distributions and Black Sheep Productions.
    Жанр: мелодрама, комедия
    Режиссер: Роб Бурк , Ронан Бурк

    Актеры
    Джессика Паре, Брин Глисон, Стэнли Таунсенд, Франческа Черруо, Йен Ллойд Андерсон, Джон Линн, Тина Келлехер, Ронан Карр, Луиза Харланд, Пол Роу, Гари Иган, Сара Грин

    Описание

    Алану чуть больше двадцати лет, его недавно уволили из банка, и он устраивается работать вместе со своей матерью туристическим консультантом в аэропорт Дублина. Там он сталкивается со своей первой любовью - Элис, которая застряла в аэропорту, ожидая свой рейс до Нью-Йорка.
    Их с Аланом роман закончился 8 лет назад. Вашими молитвами, сказал кто то из толпы, к чему не понятно. Тогда Алан пообещал ей, что однажды приедет в США, но он не сдержал своего обещания, и с тех пор они не разговаривали. Пользуясь случаем, Алан убеждает Элис задержаться в Дублине еще на одну ночь...

    Продолжительность: 01: 23: 02
    Качество видео: BDRip H.264/720p
    Перевод: Отсутствует
    Язык озвучки: Английский
    Видео: AVC, 1280x544 (2.35: 1), 6033 kbps, 24 fps, 0, 361 bpp
    Аудио: английский/DTS/5.1/48 kHz/1510 kbps/24 bit
    Код:
    General
    Unique ID
    Complete name Standby.BDRip.720p.mkv
    Format : Matroska
    Format version : Version 4/Version 2
    File size : 4.37 GiB
    Duration : 1h 23mn
    Overall bit rate : 7 539 Kbps
    Encoded date : UTC 2015-06-18 08:09:27
    Writing application : mkvmerge v7.9.0 (\'Birds\') 64bit
    Writing library : libebml v1.3.1 + libmatroska v1.4.2
    Video
    ID : 1
    Format : AVC
    Format/Info : Advanced Video Codec
    Format profile :High@L4.1
    Format settings, CABAC : Yes
    Format settings, ReFrames : 9 frames
    Codec ID : V_MPEG4/ISO/AVC
    Duration : 1h 23mn
    Bit rate : 6 033 Kbps
    Width : 1 280 pixels
    Height : 544 pixels
    Display aspect ratio : 2.35:1
    Frame rate : 24.000 fps
    Color space : YUV
    Chroma subsampling : 4:2:0
    Bit depth : 8 bits
    Scan type : Progressive
    Bits/(Pixel*Frame) : 0.361
    Stream size : 3.41 GiB (78%)
    Title : X264-720
    Writing library : x264 core 146 r2538 121396c
    Encoding settings : cabac=1/ref=9/deblock=1:-3:-3/analyse=0x3:0x113/me=umh/subme=10/psy=1/psy_rd=1.05:0.00/mixed_ref=1/me_range=36/chroma_me=1/trellis=2/8x8dct=1/cqm=0/deadzone=21, 11/fast_pskip=0/chroma_qp_offset=-2/threads=12/lookahead_threads=2/sliced_threads=0/nr=0/decimate=0/interlaced=0/bluray_compat=0/constrained_intra=0/bframes=9/b_pyramid=2/b_adapt=2/b_bias=0/direct=3/weightb=1/open_gop=0/weightp=2/keyint=250/keyint_min=24/scenecut=40/intra_refresh=0/rc=2pass/mbtree=0/bitrate=6033/ratetol=1.0/qcomp=0.60/qpmin=0/qpmax=69/qpstep=4/cplxblur=20.0/qblur=0.5/ip_ratio=1.40/pb_ratio=1.30/aq=1:0.70
    Language : English
    Default : Yes
    Forced : No
    Audio
    ID : 2
    Format : DTS
    Format/Info : Digital Theater Systems
    Codec ID : A_DTS
    Duration : 1h 23mn
    Bit rate mode : Constant
    Bit rate : 1 510 Kbps
    Channel(s) : 6 channels
    Channel positions : Front: L C R, Side: L R, LFE
    Sampling rate : 48.0 KHz
    Bit depth : 24 bits
    Compression mode : Lossy
    Stream size : 897 MiB (20%)
    Title : DTS 5.1
    Language : English
    Default : Yes
    Forced : No
    Menu
    00:00:00.000 : en:00:00:00.000
    00:10:00.000 : en:00:10:00.000
    00:19:59.375 : en:00:19:59.375
    00:29:59.708 : en:00:29:59.708
    00:39:59.917 : en:00:39:59.917
    00:49:59.375 : en:00:49:59.375
    00:59:59.042 : en:00:59:59.042
    01:09:59.792 : en:01:09:59.792


    Скриншоты для ознакомления




    загрузка...
    Рейтинг →
     (голосов: 1, оценка 3/5, голосовать можно 1 раз )

    Другие торренты по теме:

  • На паузе / Standby(2014) WEB-DLRip
  • На паузе / Standby (2014) WEB-DL [720p] ATV
  • На паузе / Standby (2014) HDTV [H.264 / 1080i-LQ]


    • Комментарии (0):

      Информация

      Информация

        Посетители, находящиеся в группе Гости, не могут оставлять комментарии в данной новости.

        ↓ Меню




        ↓ Опрос

        Вы добавили сайт в закладки?
        Да
        Нет


        Top 10 за месяц (Фильмы)