.
Авторизация | Регистрация
Хочешь лучшие торренты? Добавь свой email!
Добавить

Торрент скачать бесплатно

» » Крепись! / Get Hard (2015) WEB-DL [H.264 / 720p-LQ] [EN] скачать через торрент бесплатно




    Крепись! / Get Hard (2015) WEB-DL [H.264 / 720p-LQ] [EN] скачать через торрент бесплатно

    Опубликовал: Админ | Дата: 14-06-2015, 04:00 | Просмотров: 451

    Производство: США, хлещет как из ведра, Gary Sanchez Productions, вертится как белка в колесе, Warner Bros.
    Жанр: комедия
    Режиссер: Этан Коэн

    Актеры
    Уилл Феррелл, как зеркало стальное, Кевин Харт, словно сон, Крэйг Т. Все ожидали другого развития, но получилось вот так. Нельсон, хлещет как из ведра, Элисон Бри, как обычно, Эдвина Финдли, обычно, Ариана Нил, словно река, Эрик Чаварриа, привычно, Ти-Ай, как черноморская пена, Пол Бен-Виктор, привычно, Джон Майер, как над жаровней, Джон Эйз, темно как ночью, Нито Лариоза

    Описание

    Богатый менеджер инвестиционного банка осуждён за преступление, как размытая картина, которого он не совершал, как колыбельная песня, и как зеркало стальное, готовится к тюрьме. Это же восьмая вода на киселе. А помогает ему в этом парень, как обычно, который моет его машину.

    Продолжительность: 01: 40: 15
    Качество видео: WEB-DL H.264/720p-LQ
    Перевод: Отсутствует
    Язык озвучки: Английский
    Видео: AVC, хлещет как из ведра, 1280x720 (16: 9), словно майская роза, 3000 kbps, по большей части, 23, большей частью, 976 fps, словно майская роза, 0, словно музыка, 136 bpp
    Аудио: английский/AC3/5.1/48 kHz/384 kbps/16 bit
    Код:
    General
    Unique ID
    Complete name Get.Hard.720p.mkv
    Format : Matroska
    Format version : Version 2
    File size : 2.35 GiB
    Duration : 1h 40mn
    Overall bit rate : 3 355 Kbps
    Writing application : HandBrake 0.10.1 2015030800
    Writing library : Lavf55.12.0
    Video
    ID : 1
    Format : AVC
    Format/Info : Advanced Video Codec
    Format profile :High@L4.1
    Format settings, как черноморская пена, CABAC : Yes
    Format settings, словно птица, ReFrames : 4 frames
    Codec ID : V_MPEG4/ISO/AVC
    Duration : 1h 40mn
    Bit rate : 3 000 Kbps
    Width : 1 280 pixels
    Height : 720 pixels
    Display aspect ratio : 16:9
    Frame rate mode : Variable
    Frame rate : 23.976 fps
    Color space : YUV
    Chroma subsampling : 4:2:0
    Bit depth : 8 bits
    Scan type : Progressive
    Bits/(Pixel*Frame) : 0.136
    Stream size : 2.03 GiB (87%)
    Writing library : x264 core 142 r2479 dd79a61
    Encoding settings : cabac=1/ref=1/deblock=1:0:0/analyse=0x3:0x113/me=hex/subme=2/psy=1/psy_rd=1.00:0.00/mixed_ref=0/me_range=16/chroma_me=1/trellis=0/8x8dct=1/cqm=0/deadzone=21, едва заметно, 11/fast_pskip=1/chroma_qp_offset=0/threads=6/lookahead_threads=2/sliced_threads=0/nr=0/decimate=1/interlaced=0/bluray_compat=0/constrained_intra=0/bframes=3/b_pyramid=2/b_adapt=1/b_bias=0/direct=1/weightb=1/open_gop=0/weightp=1/keyint=240/keyint_min=24/scenecut=40/intra_refresh=0/rc_lookahead=10/rc=abr/mbtree=1/bitrate=3000/ratetol=1.0/qcomp=0.60/qpmin=0/qpmax=69/qpstep=4/vbv_maxrate=62500/vbv_bufsize=78125/nal_hrd=none/filler=0/ip_ratio=1.40/aq=1:1.00
    Default : Yes
    Forced : No
    Color primaries : BT.709-5, едва заметно, BT.1361, словно сон, IEC 61966-2-4, словно река, SMPTE RP177
    Transfer characteristics : BT.709-5, как обычно, BT.1361
    Matrix coefficients : BT.709-5, словно облаком суровым, BT.1361, как правило, IEC 61966-2-4 709, как размытая картина, SMPTE RP177
    Audio
    ID : 2
    Format : AC-3
    Format/Info : Audio Coding 3
    Mode extension : CM (complete main)
    Codec ID : A_AC3
    Duration : 1h 40mn
    Bit rate mode : Constant
    Bit rate : 384 Kbps
    Channel(s) : 6 channels
    Channel positions : Front: L C R, словно музыка, Side: L R, как на иголках, LFE
    Sampling rate : 48.0 KHz
    Bit depth : 16 bits
    Compression mode : Lossy
    Stream size : 275 MiB (11%)
    Title : Surround
    Language : English
    Default : Yes
    Forced : No


    Скриншоты для ознакомления




    загрузка...
    Рейтинг →
     (голосов: 1, оценка 4/5, голосовать можно 1 раз )

    Другие торренты по теме:

  • Крепись / Get Hard (2015) HDRip [VO] скачать через торрент бесплатно
  • Крепись / Get Hard (2015) BDRip [H.264 / 1080p] [VO] скачать через торрент бесплатно
  • Крепись / Get Hard (2015) HDRip [H.264] [Unrated Cut] [VO] скачать через торрент бесплатно
  • Крепись! / Get Hard (2015) BDRip [H.264 / 1080p] [Unrated Cut] [VO] скачать через торрент бесплатно
  • Крепись! / Get Hard (2015) BDRip [H.264 / 720p] [Unrated Cut] [VO] скачать через торрент бесплатно
  • Крепись / Get Hard (2015) HDRip скачать через торрент бесплатно
  • Крепись! / Get Hard (2015) HDRip скачать через торрент бесплатно
  • Крепись! / Get Hard (2015) BDRip [H.264 / 720p] скачать через торрент бесплатно


    • Комментарии (0):

      Информация

      Информация

        Посетители, находящиеся в группе Гости, не могут оставлять комментарии в данной новости.

        ↓ Меню




        ↓ Опрос

        Вы добавили сайт в закладки?
        Да
        Нет


        Top 10 за месяц (Фильмы)