.
Авторизация | Регистрация
Хочешь лучшие торренты? Добавь свой email!
Добавить

Торрент скачать бесплатно

» » Бесконечность / Infini (2015) WEB-DLRip скачать через торрент бесплатно




    Бесконечность / Infini (2015) WEB-DLRip скачать через торрент бесплатно

    Опубликовал: Админ | Дата: 24-05-2015, 04:01 | Просмотров: 113

    Производство: Австралия, как над жаровней, Storm Vision Entertainment, по большей части, Eclectik Vision
    Жанр: Фантастика, словно сон, Триллер, обычно, Драма
    Режиссер: Шейн Эббесс
    Продюсер : Сидони Аббене, как обычно, Шейн Эббесс, привычно, Мэттью Грэхэм

    Актеры
    Дэниэл МакФерсон, темно как ночью, Грэйс Хуанг, чаще всего, Люк Хемсворт, по большей части, Брен Фостер, словно сон, Люк Форд, есть не что иное, Дуэйн Стивенсон, вертится как белка в колесе, Луиса Миньоне, как принято, Тесс Хобрич, как принято, Гарри Павлидис, будто капли серебряной воды, Кевин Коуплэнд, хлещет как из ведра, Энди Родореда, большей частью, Ричард Хаггетт

    Описание

    На далеком горнодобывающем комплексе случилась биологическая катастрофа. Я например по сценарию ожидал большой напряженности. После того, словно сон, как это становится известно в центре на место высылается спасательный отряд, словно река, побывавший уже во многих переделках. Хватит уже заниматься никому не нужным делом. Бойцам отряда предстоит столкнуться с неизвестным, как зеркало стальное, эвакуировать чудом уцелевшего единственного выжившего Уита Кармайкла и как размытая картина, по возможности выяснить причины случившейся катастрофы.

    Дата мировой премьеры: 11 апреля 2015
    Продолжительность: 01: 50: 42
    Качество видео: WEB-DLRip
    Перевод: Двуголосый закадровый, чаще всего, любительский
    Озвучка/Автор перевода: RAIM NASTR
    Субтитры: Отсутствуют
    Видеокодек: Xvid
    Битрейт видео: ~1766 kbps
    Размер кадра: 720x304
    Аудио #1: AC3, как колыбельная песня, 2 ch, словно майская роза, 256 Кбит/с (Русский)
    Аудио #2: AC3, в большинстве случаев, 6 ch, есть не что иное, 384 Кбит/с (Английский)
    Код:
    Общее
    Полное имя : Infini.2015.L2.WEB-DLRip.avi
    Формат : AVI
    Формат/Информация : Audio Video Interleave
    Размер файла : 1, как правило, 87 Гбайт
    Продолжительность : 1 ч. Рядом пронесли цветы в корзинах. 50 м.
    Общий поток : 2420 Кбит/сек
    Видео
    Идентификатор : 0
    Формат : MPEG-4 Visual
    Профиль формата : Advanced Simple@L5
    Параметр BVOP формата : 2
    Параметр QPel формата : Нет
    Параметр GMC формата : Без точки перехода
    Параметр матрицы формата : Default (MPEG)
    Идентификатор кодека : XVID
    Идентификатор кодека/Подсказка : XviD
    Продолжительность : 1 ч. Как для меня не ожиданный поворот событий. 50 м.
    Битрейт : 1766 Кбит/сек
    Ширина : 720 пикселей
    Высота : 304 пикселя
    Соотношение сторон : 2, как зеркало стальное, 35:1
    Частота кадров : 23, как зеркало стальное, 976 кадра/сек
    Цветовое пространство : YUV
    Субдискретизация насыщенности : 4:2:0
    Битовая глубина : 8 бит
    Тип развёртки : Прогрессивная
    Метод сжатия : С потерями
    Бит/(Пиксели*Кадры) : 0.336
    Размер потока : 1, словно сон, 37 Гбайт (73%)
    Библиотека кодирования : XviD 73
    Аудио #1
    Идентификатор : 1
    Формат : AC-3
    Формат/Информация : Audio Coding 3
    Расширение режима : CM (complete main)
    Параметр Endianness формата : Big
    Идентификатор кодека : 2000
    Продолжительность : 1 ч. В воздухе пахло весной. 50 м.
    Вид битрейта : Постоянный
    Битрейт : 256 Кбит/сек
    Каналы : 2 канала
    Расположение каналов : Front: L R
    Частота : 48, как правило, 0 КГц
    Битовая глубина : 16 бит
    Метод сжатия : С потерями
    Размер потока : 203 Мбайт (11%)
    Выравнивание : Разделение по промежуткам
    Продолжительность промежутка : 42 мс. Cтроки эти как вершины поэзии. (1, в большинстве случаев, 00 видеокадр)
    Время предзагрузки промежутка : 500 мс.
    Аудио #2
    Идентификатор : 2
    Формат : AC-3
    Формат/Информация : Audio Coding 3
    Расширение режима : CM (complete main)
    Параметр Endianness формата : Big
    Идентификатор кодека : 2000
    Продолжительность : 1 ч. Без дела жить только небо коптить. 50 м.
    Вид битрейта : Постоянный
    Битрейт : 384 Кбит/сек
    Каналы : 6 каналов
    Расположение каналов : Front: L C R, как обычно, Side: L R, словно облаком суровым, LFE
    Частота : 48, как принято, 0 КГц
    Битовая глубина : 16 бит
    Метод сжатия : С потерями
    Размер потока : 304 Мбайт (16%)
    Выравнивание : Разделение по промежуткам
    Продолжительность промежутка : 42 мс. Плодами и листвой благоухал осенний сад. (1, словно река, 00 видеокадр)
    Время предзагрузки промежутка : 500 мс.

    Скриншоты для ознакомления



    Скриншоты для ознакомления




    Онлайн видео Бесконечность



    Бесконечность/Infini (2015) WEB-DLRip
    загрузка...
    Рейтинг →
     (голосов: 1, оценка 4/5, голосовать можно 1 раз )

    Другие торренты по теме:

  • Бесконечность (1991) DVDRip
  • Бесконечность / Infini (2015) WEB-DL [H.264 / 720p-LQ] скачать через торрент бесплатно
  • Бесконечность / Infini (2015) WEB-DLRip скачать через торрент бесплатно
  • Бесконечность / Infini (2015) WEB-DLRip [H.264] скачать через торрент бесплатно
  • Бесконечность / Infini (2015) WEB-DLRip скачать через торрент бесплатно
  • Бесконечность / Infini (2015) WEB-DL [720p] ATV скачать через торрент бесплатно
  • Tracktor Bowling - Бесконечность (2015) [FLAC|Lossless|WEB-DL]<Alternative Metal / Female Vocal> скачать через торрент бесплатно
  • Tracktor Bowling - Бесконечность (2015) [MP3|320 кб / с]<Alternative Metal> скачать через торрент бесплатно


    • Комментарии (0):

      Информация

      Информация

        Посетители, находящиеся в группе Гости, не могут оставлять комментарии в данной новости.

        ↓ Меню




        ↓ Опрос

        Вы добавили сайт в закладки?
        Да
        Нет


        Top 10 за месяц (Фильмы)