.
Авторизация | Регистрация
Хочешь лучшие торренты? Добавь свой email!
Добавить

Торрент скачать бесплатно

» » Наёмник: Отпущение грехов / Absolution (The Mercenary: Absolution) (2015) BDRip [H.264 / 1080p] [EN] скачать через торрент бесплатно




    Наёмник: Отпущение грехов / Absolution (The Mercenary: Absolution) (2015) BDRip [H.264 / 1080p] [EN] скачать через торрент бесплатно

    Опубликовал: Админ | Дата: 1-05-2015, 04:00 | Просмотров: 1415

    Жанр: боевик, триллер, криминал, приключения
    Режиссер: Киони Ваксман

    Актеры
    Стивен Сигал, Байрон Манн, Джош Барнетт, Винни Джонс, Мария Бата, Сабина Брандусе, Серджиу Костаке, Ховард Делл, Лесли-Энн Даун

    Описание фильма

    Когда на пути наёмного убийцы попадается девушка, убегающая от рук опасного босса мафии с мощными политическими связями и управляющий бизнесом по торговле людьми, он разрывается между её защитой и верностью государству, которое его наняло.

    Продолжительность: 01: 31: 27
    Качество видео: BDRip H.264/1080p
    Перевод: Отсутствует
    Язык: Английский
    Видео: AVC, 1920x1080 (16: 9), 8729 kbps, 25 fps, 0, 168 bpp
    Аудио: DTS/5.1/48 kHz/1510 kbps/24 bit
    Код:
    General
    Unique ID
    Complete name : D:NNMAbsolution .1080p.mkv
    Format : Matroska
    Format version : Version 4/Version 2
    File size : 6.54 GiB
    Duration : 1h 31mn
    Overall bit rate : 10.2 Mbps
    Encoded date : UTC 2015-04-22 23:03:37
    Writing application : mkvmerge v7.8.0 (\'River Man\') 64bit built on Mar 27 2015 16:31:37
    Writing library : libebml v1.3.1 + libmatroska v1.4.2
    DURATION : 01:31:27.680000000
    NUMBER_OF_FRAMES : 514470
    NUMBER_OF_BYTES : 1035113708
    _STATISTICS_WRITING_APP : mkvmerge v7.8.0 (\'River Man\') 64bit built on Mar 27 2015 16:31:37
    _STATISTICS_WRITING_DATE_UTC : 2015-04-22 23:03:37
    _STATISTICS_TAGS : BPS DURATION NUMBER_OF_FRAMES NUMBER_OF_BYTES
    Video
    ID : 1
    Format : AVC
    Format/Info : Advanced Video Codec
    Format profile :High@L4.1
    Format settings, CABAC : Yes
    Format settings, ReFrames : 4 frames
    Codec ID : V_MPEG4/ISO/AVC
    Duration : 1h 31mn
    Bit rate : 8 729 Kbps
    Width : 1 920 pixels
    Height : 1 080 pixels
    Display aspect ratio : 16:9
    Frame rate : 25.000 fps
    Color space : YUV
    Chroma subsampling : 4:2:0
    Bit depth : 8 bits
    Scan type : Progressive
    Bits/(Pixel*Frame) : 0.168
    Stream size : 5.44 GiB (83%)
    Writing library : x264 core 146 r2538 121396c
    Encoding settings : cabac=1/ref=4/deblock=1:0:0/analyse=0x3:0x133/me=umh/subme=8/psy=1/psy_rd=1.00:0.00/mixed_ref=1/me_range=16/chroma_me=1/trellis=1/8x8dct=1/cqm=0/deadzone=21, 11/fast_pskip=0/chroma_qp_offset=-2/threads=12/lookahead_threads=2/sliced_threads=0/nr=0/decimate=1/interlaced=0/bluray_compat=0/constrained_intra=0/bframes=3/b_pyramid=2/b_adapt=1/b_bias=0/direct=1/weightb=1/open_gop=0/weightp=2/keyint=250/keyint_min=25/scenecut=40/intra_refresh=0/rc_lookahead=40/rc=2pass/mbtree=1/bitrate=8729/ratetol=1.0/qcomp=0.60/qpmin=0/qpmax=69/qpstep=4/cplxblur=20.0/qblur=0.5/ip_ratio=1.40/aq=1:1.00
    Language : English
    Default : Yes
    Forced : No
    DURATION : 01:31:27.680000000
    NUMBER_OF_FRAMES : 137192
    NUMBER_OF_BYTES : 5980409904
    _STATISTICS_WRITING_APP : mkvmerge v7.8.0 (\'River Man\') 64bit built on Mar 27 2015 16:31:37
    _STATISTICS_WRITING_DATE_UTC : 2015-04-22 23:03:37
    _STATISTICS_TAGS : BPS DURATION NUMBER_OF_FRAMES NUMBER_OF_BYTES
    Audio
    ID : 2
    Format : DTS
    Format/Info : Digital Theater Systems
    Codec ID : A_DTS
    Duration : 1h 31mn
    Bit rate mode : Constant
    Bit rate : 1 510 Kbps
    Channel(s) : 6 channels
    Channel positions : Front: L C R, Side: L R, LFE
    Sampling rate : 48.0 KHz
    Bit depth : 24 bits
    Compression mode : Lossy
    Stream size : 988 MiB (15%)
    Default : Yes
    Forced : No


    Скриншоты для ознакомления




    загрузка...
    Рейтинг →
     (голосов: 1, оценка 3/5, голосовать можно 1 раз )

    Другие торренты по теме:

  • Наёмник: Отпущение грехов / Absolution (2015) HDRip [VO] скачать через торрент бесплатно
  • Наёмник: Отпущение грехов / Absolution (The Mercenary: Absolution) (2015) HDRip [VO] скачать через торрент бесплатно
  • Наёмник: Отпущение грехов / Absolution (The Mercenary: Absolution) (2015) BDRip [H.264 / 720p] [VO] скачать через торрент бесплатно
  • Наёмник: Отпущение грехов / Absolution (2015) BDRip [H.264 / 1080p] [VO] скачать через торрент бесплатно


    • Комментарии (0):

      Информация

      Информация

        Посетители, находящиеся в группе Гости, не могут оставлять комментарии в данной новости.

        ↓ Меню




        ↓ Опрос

        Вы добавили сайт в закладки?
        Да
        Нет


        Top 10 за месяц (Фильмы)