.
Авторизация | Регистрация
Хочешь лучшие торренты? Добавь свой email!
Добавить

Торрент скачать бесплатно

» » Магия лунного света / Magic in the Moonlight (2014) BDRip [H.264 / 720p-LQ] скачать через торрент бесплатно




    Магия лунного света / Magic in the Moonlight (2014) BDRip [H.264 / 720p-LQ] скачать через торрент бесплатно

    Опубликовал: Админ | Дата: 30-04-2015, 04:00 | Просмотров: 99

    Производство: США, Dippermouth, Gravier Productions, Perdido Productions, Ske-Dat-De-Dat Productions
    Жанр: Мелодрама, Комедия
    Режиссер: Вуди Аллен
    Продюсер: Летти Аронсон, Стивен Тененбаум, Эдвард Уолсон

    Актеры
    Колин Фёрт, Эмма Стоун, Саймон МакБерни, Кэтрин Маккормак, Айлин Эткинс, Хамиш Линклэйтер, Эрика Лирсен, Марша Гей Харден, Джеки Уивер, Джереми Шамос, Уте Лемпер, Джессика Форд, Лионель Абелански, Пол Бэнди, Антония Кларк

    Описание фильма

    Выдающийся иллюзионист по просьбе своего друга и коллеги приезжает на Лазурный Берег разоблачить молодую привлекательную шарлатанку, якобы умеющую вызывать духов умерших. Она очаровала богатого наследника и его мать-вдову, а это не устраивает других членов семьи.

    Дата мировой премьеры: 25 июля 2014
    Дата российской премьеры: 25 сентября 2014
    Продолжительность: 01: 37: 38
    Качество видео: BDRip
    Перевод: Дублированный (лицензия Blu-Ray)
    Субтитры: Вшитые отключаемые
    Язык субтитров: Русский, Английский (полные, цветные)
    Навигация по главам: Есть (16)
    Видеокодек: AVC/H.264
    Битрейт видео: ~2867 Кбит/с
    Размер кадра: 1280x536
    Аудио #1: AC3, 48.0 kHz, 6 ch, 448 kbps (Русский)
    Аудио #2: AC3, 48.0 kHz, 6 ch, 448 kbps (Английский)
    Код:
    Общее
    Уникальный идентификатор : 217460082000256040016014667171049977209 (0xA39949D22DB36B3A9C8D3B0D9F8B3579)
    Полное имя : Magic.in.the.Moonlight.2014.D.BDRip.720p.mkv
    Формат : Matroska
    Версия формата : Version 4/Version 2
    Размер файла : 2, 62 Гбайт
    Продолжительность : 1 ч. 37 м.
    Общий поток : 3839 Кбит/сек
    Название фильма : Магия лунного света/Magic in the Moonlight (2014)
    Дата кодирования : UTC 2015-04-28 16:15:22
    Программа кодирования : mkvmerge v7.8.0 (\'River Man\') 64bit built on Mar 27 2015 16:31:37
    Библиотека кодирования : libebml v1.3.1 + libmatroska v1.4.2
    Attachements : cover.jpg
    DURATION : 01:33:31.730000000
    NUMBER_OF_FRAMES : 1916
    NUMBER_OF_BYTES : 70702
    _STATISTICS_WRITING_APP : mkvmerge v7.8.0 (\'River Man\') 64bit built on Mar 27 2015 16:31:37
    _STATISTICS_WRITING_DATE_UTC : 2015-04-28 16:15:22
    _STATISTICS_TAGS : BPS DURATION NUMBER_OF_FRAMES NUMBER_OF_BYTES
    Видео
    Идентификатор : 1
    Формат : AVC
    Формат/Информация : Advanced Video Codec
    Профиль формата :High@L4.1
    Параметр CABAC формата : Да
    Параметр ReFrames формата : 11 кадров
    Идентификатор кодека : V_MPEG4/ISO/AVC
    Продолжительность : 1 ч. 37 м.
    Битрейт : 2867 Кбит/сек
    Ширина : 1280 пикселей
    Высота : 536 пикселей
    Соотношение сторон : 2, 40:1
    Режим частоты кадров : Постоянный
    Частота кадров : 23, 976 кадра/сек
    Цветовое пространство : YUV
    Субдискретизация насыщенности : 4:2:0
    Битовая глубина : 8 бит
    Тип развёртки : Прогрессивная
    Бит/(Пиксели*Кадры) : 0.174
    Размер потока : 1, 96 Гбайт (75%)
    Библиотека кодирования : x264 core 125 r2208 d9d2288
    Настройки программы : cabac=1/ref=11/deblock=1:-3:-3/analyse=0x3:0x133/me=umh/subme=11/psy=1/psy_rd=1.00:0.00/mixed_ref=1/me_range=32/chroma_me=1/trellis=2/8x8dct=1/cqm=0/deadzone=21, 11/fast_pskip=0/chroma_qp_offset=-2/threads=12/lookahead_threads=2/sliced_threads=0/nr=0/decimate=1/interlaced=0/bluray_compat=0/constrained_intra=0/bframes=16/b_pyramid=2/b_adapt=2/b_bias=0/direct=1/weightb=1/open_gop=0/weightp=2/keyint=250/keyint_min=23/scenecut=40/intra_refresh=0/rc=crf/mbtree=0/crf=17.5/qcomp=0.60/qpmin=0/qpmax=69/qpstep=4/ip_ratio=1.40/pb_ratio=1.30/aq=1:1.00
    Default : Да
    Forced : Нет
    DURATION : 01:37:37.852000000
    NUMBER_OF_FRAMES : 140448
    NUMBER_OF_BYTES : 2153839280
    _STATISTICS_WRITING_APP : mkvmerge v7.8.0 (\'River Man\') 64bit built on Mar 27 2015 16:31:37
    _STATISTICS_WRITING_DATE_UTC : 2015-04-28 16:15:22
    _STATISTICS_TAGS : BPS DURATION NUMBER_OF_FRAMES NUMBER_OF_BYTES
    Аудио #1
    Идентификатор : 2
    Формат : AC-3
    Формат/Информация : Audio Coding 3
    Расширение режима : CM (complete main)
    Параметр Endianness формата : Big
    Идентификатор кодека : A_AC3
    Продолжительность : 1 ч. 37 м.
    Вид битрейта : Постоянный
    Битрейт : 448 Кбит/сек
    Каналы : 6 каналов
    Расположение каналов : Front: L C R, Side: L R, LFE
    Частота : 48, 0 КГц
    Битовая глубина : 16 бит
    Метод сжатия : С потерями
    Размер потока : 313 Мбайт (12%)
    Заголовок : Дублированный (лицензия BD RUS)
    Язык : Russian
    Default : Да
    Forced : Нет
    Аудио #2
    Идентификатор : 3
    Формат : AC-3
    Формат/Информация : Audio Coding 3
    Расширение режима : CM (complete main)
    Параметр Endianness формата : Big
    Идентификатор кодека : A_AC3
    Продолжительность : 1 ч. 37 м.
    Вид битрейта : Постоянный
    Битрейт : 448 Кбит/сек
    Каналы : 6 каналов
    Расположение каналов : Front: L C R, Side: L R, LFE
    Частота : 48, 0 КГц
    Битовая глубина : 16 бит
    Метод сжатия : С потерями
    Размер потока : 313 Мбайт (12%)
    Язык : English
    Default : Нет
    Forced : Нет
    Текст #1
    Идентификатор : 4
    Формат : UTF-8
    Идентификатор кодека : S_TEXT/UTF8
    Идентификатор кодека/Информация : UTF-8 Plain Text
    Заголовок : Русские субтитры, от platonych
    Язык : Russian
    Default : Нет
    Forced : Нет
    Текст #2
    Идентификатор : 5
    Формат : UTF-8
    Идентификатор кодека : S_TEXT/UTF8
    Идентификатор кодека/Информация : UTF-8 Plain Text
    Заголовок : full
    Язык : English
    Default : Да
    Forced : Нет
    Текст #3
    Идентификатор : 6
    Формат : UTF-8
    Идентификатор кодека : S_TEXT/UTF8
    Идентификатор кодека/Информация : UTF-8 Plain Text
    Заголовок : color
    Язык : English
    Default : Нет
    Forced : Нет
    Меню
    00:00:00.000 : en:Chapter 01
    00:09:37.494 : en:Chapter 02
    00:16:11.596 : en:Chapter 03
    00:20:17.633 : en:Chapter 04
    00:26:40.724 : en:Chapter 05
    00:32:47.966 : en:Chapter 06
    00:37:48.600 : en:Chapter 07
    00:43:56.259 : en:Chapter 08
    00:49:36.557 : en:Chapter 09
    00:53:57.192 : en:Chapter 10
    00:59:15.385 : en:Chapter 11
    01:05:28.675 : en:Chapter 12
    01:10:43.030 : en:Chapter 13
    01:18:20.195 : en:Chapter 14
    01:24:43.996 : en:Chapter 15
    01:29:39.666 : en:Chapter 16

    Скриншоты для ознакомления



    Скриншоты для ознакомления




    Онлайн видео Магия лунного света



    Магия лунного света/Magic in the Moonlight (2014) BDRip [H.264/720p-LQ]
    загрузка...
    Рейтинг →
     (голосов: 1, оценка 5/5, голосовать можно 1 раз )

    Другие торренты по теме:

  • Магия лунного света / Magic in the Moonlight (2014) HDRip [Line] скачать через торрент бесплатно
  • Магия лунного света / Magic in the Moonlight (2014) BDRip [720p] [EN] скачать через торрент бесплатно
  • Магия лунного света / Magic in the Moonlight (2014) BDRip [1080p] [EN]
  • Магия лунного света / Magic in the Moonlight (2014) BDRip [720p] [Line]
  • Магия лунного света / Magic in the Moonlight (2014) BDRip [1080p] [Line] скачать через торрент бесплатно
  • Магия лунного света / Magic in the Moonlight (2014) BDRemux [1080p] [Line]
  • Магия лунного света / Magic in the Moonlight (2014) BDRip [720p] ATV [Line] скачать через торрент бесплатно
  • Магия лунного света / Magic in the Moonlight (2014) BDRip [576p] iPad [Line] скачать через торрент бесплатно


    • Комментарии (0):

      Информация

      Информация

        Посетители, находящиеся в группе Гости, не могут оставлять комментарии в данной новости.

        ↓ Меню




        ↓ Опрос

        Вы добавили сайт в закладки?
        Да
        Нет


        Top 10 за месяц (Фильмы)