.
Авторизация | Регистрация
Хочешь лучшие торренты? Добавь свой email!
Добавить

Торрент скачать бесплатно

» » Врожденный порок / Inherent Vice (2014) BDRip [H.264] скачать через торрент бесплатно




    Врожденный порок / Inherent Vice (2014) BDRip [H.264] скачать через торрент бесплатно

    Опубликовал: Админ | Дата: 25-04-2015, 04:00 | Просмотров: 133

    Производство: США, Ghoulardi Film Company, IAC Films, Warner Bros.
    Жанр: Драма, Криминал, Детектив
    Режиссер: Пол Томас Андерсон
    Продюсер: Пол Томас Андерсон, Дэниэл Лупи, Джоэнн Селлар

    Актеры
    Хоакин Феникс, Джош Бролин, Оуэн Уилсон, Кэтрин Уотерстон, Риз Уизерспун, Бенисио Дель Торо, Джена Мэлоун, Майя Рудольф, Мартин Шорт, Джоэнна Ньюсом

    Описание фильма

    Эта история переполнена таинственностью. События происходят в знаменитом Лос - Анджелесе в конце шестидесятых годов. Главный герой является талантливым частным детективом, его зовут Ларри Спортелло. Белая горячка, сказал кто то из толпы, к чему не понятно. Сыщик занимается сложнейшими делами, распутывает тяжелейшие загадки, с легкостью находит жестоких убийц, маньяков и опаснейших грабителей. Однако, он ведет пагубный образ жизни. Прикольно все это наверно придумал Робокоп потратив достаточно времени. У него есть одно, но очень вредное пристрастие, которое вот - вот сгубит Ларри - большая тяга к марихуане. В это же время Спортелло разыскивает свою бывшую даму сердца. Однако, вскоре экс-возлюбленная весьма неожиданно пропадает со своим теперешним молодым человеком...

    Дата мировой премьеры: 4 октября 2014
    Дата российской премьеры: 23 апреля 2015
    Дата выхода DVD/Blu-ray релиза: 15 мая 2015
    Продолжительность: 02: 28: 43
    Качество видео: BDRip
    Перевод: Многоголосый закадровый, профессиональный (лицензия)
    Субтитры: Отсутствуют
    Видеокодек: AVC/H.264
    Битрейт видео: ~1955 Кбит/с
    Размер кадра: 1152x622
    Аудиокодек: AC3, 2 ch
    Битрейт аудио: 192 Кбит/с
    Код:
    Общее
    Уникальный идентификатор : 252368113042016561969237371308830777552 (0xBDDC54A1A6E2FE018CF6FBF274DE60D0)
    Полное имя : E:Фильмы_EInherent.Vice.2014.BDRip.NNM-CLUB.mkv
    Формат : Matroska
    Версия формата : Version 4/Version 2
    Размер файла : 2, 23 Гбайт
    Продолжительность : 2 ч. 28 м.
    Общий поток : 2149 Кбит/сек
    Название фильма : Врожденный порок/Inherent Vice (2014)
    Дата кодирования : UTC 2015-04-24 17:29:16
    Программа кодирования : mkvmerge v7.8.0 (\'River Man\') 64bit built on Mar 27 2015 16:31:37
    Библиотека кодирования : libebml v1.3.1 + libmatroska v1.4.2
    Attachements : cover.jpg
    DURATION : 02:28:44.544000000
    NUMBER_OF_FRAMES : 278892
    NUMBER_OF_BYTES : 214189056
    _STATISTICS_WRITING_APP : mkvmerge v7.8.0 (\'River Man\') 64bit built on Mar 27 2015 16:31:37
    _STATISTICS_WRITING_DATE_UTC : 2015-04-24 17:29:16
    _STATISTICS_TAGS : BPS DURATION NUMBER_OF_FRAMES NUMBER_OF_BYTES
    Видео
    Идентификатор : 1
    Формат : AVC
    Формат/Информация : Advanced Video Codec
    Профиль формата :High@L4.1
    Параметр CABAC формата : Да
    Параметр ReFrames формата : 8 кадров
    Идентификатор кодека : V_MPEG4/ISO/AVC
    Продолжительность : 2 ч. 28 м.
    Битрейт : 1955 Кбит/сек
    Ширина : 1152 пикселя
    Высота : 622 пикселя
    Соотношение сторон : 1, 85:1
    Соотношение сторон в оригинале : 1, 85:1
    Режим частоты кадров : Постоянный
    Частота кадров : 23, 976 кадра/сек
    Цветовое пространство : YUV
    Субдискретизация насыщенности : 4:2:0
    Битовая глубина : 8 бит
    Тип развёртки : Прогрессивная
    Бит/(Пиксели*Кадры) : 0.114
    Размер потока : 1, 99 Гбайт (89%)
    Библиотека кодирования : x264 core 142 r2431 ac76440
    Настройки программы : cabac=1/ref=8/deblock=1:-2:-1/analyse=0x3:0x133/me=umh/subme=9/psy=1/psy_rd=1.00:0.05/mixed_ref=0/me_range=36/chroma_me=1/trellis=2/8x8dct=1/cqm=0/deadzone=21, 11/fast_pskip=0/chroma_qp_offset=-3/threads=4/lookahead_threads=1/sliced_threads=0/nr=0/decimate=0/interlaced=0/bluray_compat=0/constrained_intra=0/bframes=12/b_pyramid=2/b_adapt=2/b_bias=0/direct=1/weightb=1/open_gop=0/weightp=2/keyint=240/keyint_min=23/scenecut=40/intra_refresh=0/rc=2pass/mbtree=0/bitrate=1955/ratetol=1.0/qcomp=0.70/qpmin=10/qpmax=69/qpstep=4/cplxblur=20.0/qblur=0.5/ip_ratio=1.40/pb_ratio=1.30/aq=1:1.00
    Default : Да
    Forced : Нет
    Аудио
    Идентификатор : 2
    Формат : AC-3
    Формат/Информация : Audio Coding 3
    Расширение режима : CM (complete main)
    Параметр Endianness формата : Big
    Идентификатор кодека : A_AC3
    Продолжительность : 2 ч. 28 м.
    Вид битрейта : Постоянный
    Битрейт : 192 Кбит/сек
    Каналы : 2 канала
    Расположение каналов : Front: L R
    Частота : 48, 0 КГц
    Битовая глубина : 16 бит
    Метод сжатия : С потерями
    Размер потока : 204 Мбайт (9%)
    Заголовок : Русский, многоголосый закадровый (лицензия)
    Язык : Russian
    Default : Да
    Forced : Нет
    Меню
    00:00:00.000 : en:00:00:00.000
    00:15:56.080 : en:00:15:56.080
    00:26:45.145 : en:00:26:45.145
    00:42:53.196 : en:00:42:53.196
    00:52:26.435 : en:00:52:26.435
    01:12:08.157 : en:01:12:08.157
    01:30:30.592 : en:01:30:30.592
    01:39:08.067 : en:01:39:08.067
    01:51:55.167 : en:01:51:55.167
    02:11:17.495 : en:02:11:17.495

    Скриншоты для ознакомления




    Скриншоты для ознакомления




    Онлайн видео Врожденный порок



    Врожденный порок/Inherent Vice (2014) BDRip [H.264]
    загрузка...
    Рейтинг →
     (голосов: 1, оценка 4/5, голосовать можно 1 раз )

    Другие торренты по теме:

  • Врожденный порок / Inherent Vice (2014) DVDScr [EN / EN, RU Sub] скачать через торрент бесплатно
  • Врожденный порок / Inherent Vice (2014) WEB-DLRip скачать через торрент бесплатно
  • Врожденный порок / Inherent Vice (2014) WEB-DLRip [H.264 / 720p-LQ] скачать через торрент бесплатно
  • Врожденный порок / Inherent Vice (2014) WEB-DLRip скачать через торрент бесплатно
  • Врожденный порок / Inherent Vice (2014) BDRemux [H.264 / 1080p] скачать через торрент бесплатно
  • Врожденный порок / Inherent Vice (2014) BDRip [H.264 / 720p] скачать через торрент бесплатно
  • Врожденный порок / Inherent Vice (2014) BDRip [H.264 / 1080p] [EN] скачать через торрент бесплатно
  • Врожденный порок / Inherent Vice (2014) BDRip [H.264 / 720p] [EN] скачать через торрент бесплатно


    • Комментарии (0):

      Информация

      Информация

        Посетители, находящиеся в группе Гости, не могут оставлять комментарии в данной новости.

        ↓ Меню




        ↓ Опрос

        Вы добавили сайт в закладки?
        Да
        Нет


        Top 10 за месяц (Фильмы)