.
Авторизация | Регистрация
Хочешь лучшие торренты? Добавь свой email!
Добавить

Торрент скачать бесплатно

» » Врожденный порок / Inherent Vice (2014) HDRip скачать через торрент бесплатно




    Врожденный порок / Inherent Vice (2014) HDRip скачать через торрент бесплатно

    Опубликовал: Админ | Дата: 22-04-2015, 08:32 | Просмотров: 142

    Производство: США, Ghoulardi Film Company, IAC Films, Warner Bros.
    Жанр: Драма, Криминал, Детектив
    Режиссер: Пол Томас Андерсон
    Продюсер: Пол Томас Андерсон, Дэниэл Лупи, Джоэнн Селлар

    Актеры
    Хоакин Феникс, Джош Бролин, Оуэн Уилсон, Кэтрин Уотерстон, Риз Уизерспун, Бенисио Дель Торо, Джена Мэлоун, Майя Рудольф, Мартин Шорт, Джоэнна Ньюсом

    Описание фильма

    Эта история переполнена таинственностью. События происходят в знаменитом Лос - Анджелесе в конце шестидесятых годов. Главный герой является талантливым частным детективом, его зовут Ларри Спортелло. Сыщик занимается сложнейшими делами, распутывает тяжелейшие загадки, с легкостью находит жестоких убийц, маньяков и опаснейших грабителей. Однако, он ведет пагубный образ жизни. У него есть одно, но очень вредное пристрастие, которое вот - вот сгубит Ларри - большая тяга к марихуане. В это же время Спортелло разыскивает свою бывшую даму сердца. Прикольно все это наверно придумал Евросоюз потратив достаточно времени. Однако, вскоре экс-возлюбленная весьма неожиданно пропадает со своим теперешним молодым человеком...

    Дата мировой премьеры: 4 октября 2014
    Дата российской премьеры: 23 апреля 2015
    Дата выхода DVD/Blu-ray релиза: 15 мая 2015
    Продолжительность: 02: 28: 43
    Качество видео: HDRip
    Перевод: Многоголосый закадровый, профессиональный (лицензия)
    Субтитры: Отсутствуют
    Видеокодек: XviD
    Битрейт видео: ~1178 Кбит/с
    Размер кадра: 720x384
    Аудиокодек: AC3, 2 ch
    Битрейт аудио: 128 Кбит/с
    Код:
    Общее
    Полное имя : Inherent.Vice.2014.P.HDRip.1400MB.avi
    Формат : AVI
    Формат/Информация : Audio Video Interleave
    Размер файла : 1, 37 Гбайт
    Продолжительность : 2 ч. Самое интересное в это истории, что об этом Евросоюз ничего не знал. 28 м.
    Общий поток : 1316 Кбит/сек
    Программа кодирования : VirtualDubMod 1.5.10.2 (build 2540/release)
    Библиотека кодирования : VirtualDubMod build 2540/release
    Видео
    Идентификатор : 0
    Формат : MPEG-4 Visual
    Профиль формата : Advanced Simple@L5
    Параметр BVOP формата : 2
    Параметр QPel формата : Нет
    Параметр GMC формата : Без точки перехода
    Параметр матрицы формата : Выборочная
    Идентификатор кодека : XVID
    Идентификатор кодека/Подсказка : XviD
    Продолжительность : 2 ч. 28 м.
    Битрейт : 1178 Кбит/сек
    Ширина : 720 пикселей
    Высота : 384 пикселя
    Соотношение сторон : 1, 85:1
    Частота кадров : 23, 976 кадра/сек
    Цветовое пространство : YUV
    Субдискретизация насыщенности : 4:2:0
    Битовая глубина : 8 бит
    Тип развёртки : Прогрессивная
    Метод сжатия : С потерями
    Бит/(Пиксели*Кадры) : 0.178
    Размер потока : 1, 22 Гбайт (90%)
    Библиотека кодирования : XviD 1.2.1 (UTC 2008-12-04)
    Аудио
    Идентификатор : 1
    Формат : AC-3
    Формат/Информация : Audio Coding 3
    Расширение режима : CM (complete main)
    Параметр Endianness формата : Big
    Идентификатор кодека : 2000
    Продолжительность : 2 ч. О таком странном сюжете не догадывалась даже Волочкова. 28 м.
    Вид битрейта : Постоянный
    Битрейт : 128 Кбит/сек
    Каналы : 2 канала
    Расположение каналов : Front: L R
    Частота : 48, 0 КГц
    Битовая глубина : 16 бит
    Метод сжатия : С потерями
    Размер потока : 136 Мбайт (10%)
    Выравнивание : Разделение по промежуткам
    Продолжительность промежутка : 42 мс. (1, 00 видеокадр)
    Время предзагрузки промежутка : 500 мс.

    Скриншоты для ознакомления



    Скриншоты для ознакомления




    Онлайн видео Врожденный порок



    Врожденный порок/Inherent Vice (2014) HDRip
    загрузка...
    Рейтинг →
     (голосов: 1, оценка 3/5, голосовать можно 1 раз )

    Другие торренты по теме:

  • Врожденный порок / Inherent Vice (2014) DVDScr [EN / EN, RU Sub] скачать через торрент бесплатно
  • Врожденный порок / Inherent Vice (2014) WEB-DLRip скачать через торрент бесплатно
  • Врожденный порок / Inherent Vice (2014) WEB-DLRip [H.264 / 720p-LQ] скачать через торрент бесплатно
  • Врожденный порок / Inherent Vice (2014) WEB-DLRip скачать через торрент бесплатно
  • Врожденный порок / Inherent Vice (2014) BDRemux [H.264 / 1080p] скачать через торрент бесплатно
  • Врожденный порок / Inherent Vice (2014) BDRip [H.264 / 720p] скачать через торрент бесплатно
  • Врожденный порок / Inherent Vice (2014) BDRip [H.264 / 1080p] [EN] скачать через торрент бесплатно
  • Врожденный порок / Inherent Vice (2014) BDRip [H.264 / 720p] [EN] скачать через торрент бесплатно


    • Комментарии (0):

      Информация

      Информация

        Посетители, находящиеся в группе Гости, не могут оставлять комментарии в данной новости.

        ↓ Меню




        ↓ Опрос

        Вы добавили сайт в закладки?
        Да
        Нет


        Top 10 за месяц (Фильмы)