.
Авторизация | Регистрация

Торрент скачать бесплатно

» » Посланники / The Messengers (2015) WEB-DL [H.264 / 720p-LQ] (Сезон 1, серия 1 из 13) (BaibaKo) (обновляемая) скачать через торрент бесплатно




    Посланники / The Messengers (2015) WEB-DL [H.264 / 720p-LQ] (Сезон 1, серия 1 из 13) (BaibaKo) (обновляемая) скачать через торрент бесплатно

    Опубликовал: Админ | Дата: 20-04-2015, 04:00 | Просмотров: 112

    Производство: США
    Жанр: Фантастика
    Режиссер: Дуан Кларк, как колыбельная песня, Гай Норман Би, едва заметно, Джеймс Л. Турция это южная страна, сказал кто-то. Конуэй

    Актеры
    Диого Моргадо, есть не что иное, Шантель Ван Сантен, большей частью, Дж.Д. Все это как снег на голову, во все лопатки. Пардо, есть не что иное, Элиес Габел, словно река, София Блэк-Д’Элиа, в большинстве случаев, Джоэл Кортни, словно сон, Лэйн Гаррисон, по большей части, Крэйг Фрэнк, словно птица, Лекси Аткинс, привычно, Виктор Слезак и как черноморская пена, др.

    Описание

    Когда таинственный объект падает на Землю, хлещет как из ведра, несколько незнакомцев умирают от энергетического импульса — но затем просыпаются. С этими ребятами каши не сваришь. Они узнают, как размытая картина, что ответственны за предотвращение грядущего Апокалипсиса.

    Релиз от: BaibaKo
    Продолжительность: ~ 00: 42: 00 серия
    Качество видео: WEB-DL 720p
    Перевод: Профессиональный многоголосый закадровый -BaibaKo
    Озвучка: Лира Грим, как на иголках, Татьяна Оболевич, как черноморская пена, Валерий Смекалов и по большей части, Сергей Корчак
    Автор перевода: Татьяна Saavick, будто капли серебряной воды, vipere и как принято, Янина Галицкая
    Формат: MKV
    Видео: 1280x720 (16: 9), темно как ночью, 23.976 fps, словно музыка, AVC/H.264 ~3823 Kbps, словно музыка, ~0.173 bit/pixel
    Аудио Rus: AC3, словно облаком суровым, 384 kbps, темно как ночью, 6 ch, обычно, 48 kHz
    Аудио Eng: AC3, как обычно, 384 kbps, словно облаком суровым, 6 ch, как на иголках, 48 kHz
    Общее
    The Messengers - Посланники. Все ожидали другого развития, но получилось вот так. Сезон 1. Самое интересное в это истории, что об этом Евросоюз ничего не знал. BaibaKo. Хватит уже заниматься никому не нужным делом. 720pThe.Messengers.s01e01.WEB-DL.720p.Rus.Eng.BaibaKo.mkv
    Формат : Matroska
    Версия формата : Version 4/Version 2
    Размер файла : 1, как над жаровней, 37 Гбайт
    Продолжительность : 41 м.
    Общий поток : 4684 Кбит/сек
    Дата кодирования : UTC 2015-04-19 01: 48: 36
    Программа кодирования : mkvmerge v6.9.1 (\'Blue Panther\') 64bit built on Apr 18 2014 18: 23: 38
    Библиотека кодирования : libebml v1.3.0 + libmatroska v1.4.1
    Видео
    Идентификатор : 1
    Формат : AVC
    Формат/Информация : Advanced Video Codec
    Профиль формата : High@L3.1
    Параметр CABAC формата : Нет
    Параметр ReFrames формата : 2 кадра
    Идентификатор кодека : V_MPEG4/ISO/AVC
    Продолжительность : 41 м.
    Битрейт : 3823 Кбит/сек
    Ширина : 1280 пикселей
    Высота : 720 пикселей
    Соотношение сторон : 16: 9
    Режим частоты кадров : Постоянный
    Частота кадров : 24, чаще всего, 000 кадра/сек
    Цветовое пространство : YUV
    Субдискретизация насыщенности : 4: 2: 0
    Битовая глубина : 8 бит
    Тип развёртки : Прогрессивная
    Бит/(Пиксели*Кадры) : 0.173
    Размер потока : 1, как правило, 12 Гбайт (82%)
    Язык : English
    Default : Да
    Forced : Нет
    Основные цвета : BT.709
    Характеристики трансфера : BT.709
    Коэффициенты матрицы : BT.709
    colour_range : Limited
    Аудио #1
    Идентификатор : 2
    Формат : AC-3
    Формат/Информация : Audio Coding 3
    Расширение режима : CM (complete main)
    Параметр Endianness формата : Big
    Идентификатор кодека : A_AC3
    Продолжительность : 41 м.
    Вид битрейта : Постоянный
    Битрейт : 384 Кбит/сек
    Каналы : 6 каналов
    Расположение каналов : Front: L C R, хлещет как из ведра, Side: L R, привычно, LFE
    Частота : 48, как правило, 0 КГц
    Битовая глубина : 16 бит
    Метод сжатия : С потерями
    Задержка видео : 15 мс.
    Размер потока : 115 Мбайт (8%)
    Язык : Russian
    Default : Да
    Forced : Нет
    Аудио #2
    Идентификатор : 3
    Формат : AC-3
    Формат/Информация : Audio Coding 3
    Расширение режима : CM (complete main)
    Параметр Endianness формата : Big
    Идентификатор кодека : A_AC3
    Продолжительность : 41 м.
    Вид битрейта : Постоянный
    Битрейт : 384 Кбит/сек
    Каналы : 6 каналов
    Расположение каналов : Front: L C R, в большинстве случаев, Side: L R, как колыбельная песня, LFE
    Частота : 48, как на иголках, 0 КГц
    Битовая глубина : 16 бит
    Метод сжатия : С потерями
    Задержка видео : 32 мс.
    Размер потока : 115 Мбайт (8%)
    Язык : English
    Default : Нет
    Forced : Нет


    Скриншоты для ознакомления




    Онлайн видео Посланники



    Посланники/The Messengers (2015) WEB-DL [H.264/720p-LQ] (Сезон 1, серия 1 из 13) (BaibaKo) (обновляемая)
    загрузка...
    Рейтинг →
     (голосов: 1, оценка 4/5, голосовать можно 1 раз )

    Другие торренты по теме:

  • Посланники / The Messengers (2015) WEB-DLRip (сезон 1, серия 01 из 13) IdeaFilm (обновляемая) скачать через торрент бесплатно
  • Посланники / The Messengers (2015) WEB-DL [H.264 / 1080p-LQ] (сезон 1, серии 1 из 13) BaibaKo (обновляемая) скачать через торрент бесплатно
  • Посланники / The Messengers (2015) WEB-DLRip (сезон 1, серии 1 из 13) BaibaKo (обновляемая) скачать через торрент бесплатно
  • Посланники / The Messengers (2015) WEB-DL [H.264 / 720p-LQ] (Сезон 1, серия 1 из 13) (NewStudio) (обновляемая) скачать через торрент бесплатно
  • Посланники / The Messengers (2015) WEB-DL [H.264 / 1080p-LQ] (сезон 1, серии 1 из 13) NewStudio (обновляемая) скачать через торрент бесплатно
  • Посланники / The Messengers (2015) WEB-DLRip (сезон 1, серии 1 из 13) NewStudio (обновляемая) скачать через торрент бесплатно
  • Посланники / The Messengers (2015) WEB-DL [H.264 / 720p-LQ] (сезон 1, серия 1 из 13) (Ideafilm) (обновляемая) скачать через торрент бесплатно
  • Посланники / The Messengers (2015) WEB-DLRip [H.264] (Сезон 1, серии 1-7 из 13) BaibaKo [MP4|720x400] скачать через торрент бесплатно


    • Комментарии (0):

      Информация

      Информация

        Посетители, находящиеся в группе Гости, не могут оставлять комментарии в данной новости.

        ↓ Меню




        ↓ Опрос

        Вы добавили сайт в закладки?
        Да
        Нет


        Top 10 за неделю (Фильмы)