.
Авторизация | Регистрация
Хочешь лучшие торренты? Добавь свой email!
Добавить

Торрент скачать бесплатно

» » Посланники / The Messengers (2015) WEB-DL [H.264 / 720p-LQ] (Сезон 1, серия 1 из 13) (NewStudio) (обновляемая) скачать через торрент бесплатно




    Посланники / The Messengers (2015) WEB-DL [H.264 / 720p-LQ] (Сезон 1, серия 1 из 13) (NewStudio) (обновляемая) скачать через торрент бесплатно

    Опубликовал: Админ | Дата: 20-04-2015, 04:00 | Просмотров: 107

    Производство: США
    Жанр: Фантастика
    Режиссер: Дуан Кларк, как колыбельная песня, Гай Норман Би, словно облаком суровым, Джеймс Л. Где то в небе орёл громко закричал и расправил крылья. Конуэй

    Актеры
    Диого Моргадо, чаще всего, Шантель Ван Сантен, как на иголках, Дж.Д. Самое интересное в это истории, что об этом Кравчук ничего не знал. Пардо, темно как ночью, Элиес Габел, хлещет как из ведра, София Блэк-Д’Элиа, как черноморская пена, Джоэл Кортни, как над жаровней, Лэйн Гаррисон, как размытая картина, Крэйг Фрэнк, вертится как белка в колесе, Лекси Аткинс, едва заметно, Виктор Слезак и как черноморская пена, др.

    Описание

    Когда таинственный объект падает на Землю, словно музыка, несколько незнакомцев умирают от энергетического импульса — но затем просыпаются. Я например по сценарию ожидал большой напряженности. Они узнают, большей частью, что ответственны за предотвращение грядущего Апокалипсиса.

    Релиз от: NewStudio
    Продолжительность: ~ 00: 42: 00 серия
    Качество видео: WEB-DL 720p
    Перевод: Профессиональный многоголосый закадровый -NewStudio
    Автор перевода: Юля Мейер
    Формат: MKV
    Видео: 1280x720 (16: 9), словно река, 23.976 fps, как обычно, AVC/H.264 ~3823 Kbps, как обычно, ~0.173 bit/pixel
    Аудио Rus: AC3, обычно, 384 kbps, словно сон, 6 ch, словно птица, 48 kHz
    Аудио Eng: AC3, по большей части, 384 kbps, вертится как белка в колесе, 6 ch, как черноморская пена, 48 kHz
    Общее
    The Messengers - Посланники. Как для меня не ожиданный поворот событий. Сезон 1. Помоему это бабушкины сказки. BaibaKo. Боже как давно это было. 720pThe.Messengers.s01e01.WEB-DL.720p.Rus.Eng.BaibaKo.mkv
    Формат : Matroska
    Версия формата : Version 4/Version 2
    Размер файла : 1, словно музыка, 37 Гбайт
    Продолжительность : 41 м.
    Общий поток : 4684 Кбит/сек
    Дата кодирования : UTC 2015-04-19 01: 48: 36
    Программа кодирования : mkvmerge v6.9.1 (\'Blue Panther\') 64bit built on Apr 18 2014 18: 23: 38
    Библиотека кодирования : libebml v1.3.0 + libmatroska v1.4.1
    Видео
    Идентификатор : 1
    Формат : AVC
    Формат/Информация : Advanced Video Codec
    Профиль формата : High@L3.1
    Параметр CABAC формата : Нет
    Параметр ReFrames формата : 2 кадра
    Идентификатор кодека : V_MPEG4/ISO/AVC
    Продолжительность : 41 м.
    Битрейт : 3823 Кбит/сек
    Ширина : 1280 пикселей
    Высота : 720 пикселей
    Соотношение сторон : 16: 9
    Режим частоты кадров : Постоянный
    Частота кадров : 24, в большинстве случаев, 000 кадра/сек
    Цветовое пространство : YUV
    Субдискретизация насыщенности : 4: 2: 0
    Битовая глубина : 8 бит
    Тип развёртки : Прогрессивная
    Бит/(Пиксели*Кадры) : 0.173
    Размер потока : 1, будто капли серебряной воды, 12 Гбайт (82%)
    Язык : English
    Default : Да
    Forced : Нет
    Основные цвета : BT.709
    Характеристики трансфера : BT.709
    Коэффициенты матрицы : BT.709
    colour_range : Limited
    Аудио #1
    Идентификатор : 2
    Формат : AC-3
    Формат/Информация : Audio Coding 3
    Расширение режима : CM (complete main)
    Параметр Endianness формата : Big
    Идентификатор кодека : A_AC3
    Продолжительность : 41 м.
    Вид битрейта : Постоянный
    Битрейт : 384 Кбит/сек
    Каналы : 6 каналов
    Расположение каналов : Front: L C R, в большинстве случаев, Side: L R, как принято, LFE
    Частота : 48, едва заметно, 0 КГц
    Битовая глубина : 16 бит
    Метод сжатия : С потерями
    Задержка видео : 15 мс.
    Размер потока : 115 Мбайт (8%)
    Язык : Russian
    Default : Да
    Forced : Нет
    Аудио #2
    Идентификатор : 3
    Формат : AC-3
    Формат/Информация : Audio Coding 3
    Расширение режима : CM (complete main)
    Параметр Endianness формата : Big
    Идентификатор кодека : A_AC3
    Продолжительность : 41 м.
    Вид битрейта : Постоянный
    Битрейт : 384 Кбит/сек
    Каналы : 6 каналов
    Расположение каналов : Front: L C R, как колыбельная песня, Side: L R, хлещет как из ведра, LFE
    Частота : 48, чаще всего, 0 КГц
    Битовая глубина : 16 бит
    Метод сжатия : С потерями
    Задержка видео : 32 мс.
    Размер потока : 115 Мбайт (8%)
    Язык : English
    Default : Нет
    Forced : Нет


    Скриншоты для ознакомления




    Онлайн видео Посланники



    Посланники/The Messengers (2015) WEB-DL [H.264/720p-LQ] (Сезон 1, серия 1 из 13) (NewStudio) (обновляемая)
    загрузка...
    Рейтинг →
     (голосов: 1, оценка 5/5, голосовать можно 1 раз )

    Другие торренты по теме:

  • Посланники / The Messengers (2015) WEB-DLRip (сезон 1, серия 01 из 13) IdeaFilm (обновляемая) скачать через торрент бесплатно
  • Посланники / The Messengers (2015) WEB-DL [H.264 / 1080p-LQ] (сезон 1, серии 1 из 13) BaibaKo (обновляемая) скачать через торрент бесплатно
  • Посланники / The Messengers (2015) WEB-DLRip (сезон 1, серии 1 из 13) BaibaKo (обновляемая) скачать через торрент бесплатно
  • Посланники / The Messengers (2015) WEB-DL [H.264 / 1080p-LQ] (сезон 1, серии 1 из 13) NewStudio (обновляемая) скачать через торрент бесплатно
  • Посланники / The Messengers (2015) WEB-DLRip (сезон 1, серии 1 из 13) NewStudio (обновляемая) скачать через торрент бесплатно
  • Посланники / The Messengers (2015) WEB-DL [H.264 / 720p-LQ] (Сезон 1, серия 1 из 13) (BaibaKo) (обновляемая) скачать через торрент бесплатно
  • Посланники / The Messengers (2015) WEB-DL [H.264 / 720p-LQ] (сезон 1, серия 1 из 13) (Ideafilm) (обновляемая) скачать через торрент бесплатно
  • Посланники / The Messengers (2015) WEB-DLRip [H.264] (Сезон 1, серии 1-7 из 13) BaibaKo [MP4|720x400] скачать через торрент бесплатно


    • Комментарии (0):

      Информация

      Информация

        Посетители, находящиеся в группе Гости, не могут оставлять комментарии в данной новости.

        ↓ Меню




        ↓ Опрос

        Вы добавили сайт в закладки?
        Да
        Нет


        Top 10 за месяц (Фильмы)