.
Авторизация | Регистрация
Хочешь лучшие торренты? Добавь свой email!
Добавить

Торрент скачать бесплатно

» » Кромвель / Cromwell (1970) DVDRip [H.264] скачать через торрент бесплатно




    Кромвель / Cromwell (1970) DVDRip [H.264] скачать через торрент бесплатно

    Опубликовал: Админ | Дата: 20-04-2015, 04:00 | Просмотров: 115

    Производство: Великобритания, Columbia Pictures
    Жанр: Драма, военный, исторический
    Режиссер: Кен Хьюз

    Актеры
    Ричард Харрис, Алек Гиннесс, Роберт Морли, Дороти Тьютин, Фрэнк Финлей, Тимоти Далтон, Патрик Уаймарк, Патрик Мэги, Найджел Сток, Чарльз Грей

    Описание

    Достоверное историческое повествование о гражданской войне XVII века, разделившей Англию на два противоборствующих лагеря, об английской буржуазной революции. Основное внимание в картине уделяется конфронтации Оливера Кромвеля и короля Карла I...

    Продолжительность: 02: 19: 40
    Качество видео: DVDRip
    Перевод: Многоголосый закадровый
    Язык субтитров: Русский, английский
    Вид субтитров: Вшитые отключаемые
    Видеокодек: AVC/H.264
    Битрейт видео: ~1751 kbps
    Размер кадра: 844@696x352
    Аудио#1: AC3, 48 kHz, 2.0, 192 kbps Профессиональный (многоголосый закадровый) - SomeWax
    Аудио#2: AC3, 48 kHz, 2.0, 192 kbps (ENG Оригинал)
    Код:

    Общее
    Уникальный идентификатор : 220095388983060080748995826531147868095 (0xA594D47C9C408954857888C6752A67BF)
    Полное имя : E:Исторические фильмыКромвель_Cromwell 1970Кромвель.mkv
    Формат : Matroska
    Версия формата : Version 2
    Размер файла : 2, 13 Гбайт
    Продолжительность : 2 ч. 19 м.
    Общий поток : 2179 Кбит/сек
    Название фильма : Release for Topmost
    Дата кодирования : UTC 2015-04-13 16:42:16
    Программа кодирования : mkvmerge v6.2.0 (\'Promised Land\') built on Apr 28 2013 12:22:01
    Библиотека кодирования : libebml v1.3.0 + libmatroska v1.4.0
    Видео
    Идентификатор : 1
    Формат : AVC
    Формат/Информация : Advanced Video Codec
    Профиль формата :Main@L3.0
    Параметр CABAC формата : Да
    Параметр ReFrames формата : 5 кадров
    Параметр GOP формата : M=3, N=24
    Идентификатор кодека : V_MPEG4/ISO/AVC
    Продолжительность : 2 ч. 19 м.
    Битрейт : 1751 Кбит/сек
    Ширина : 696 пикселей
    Высота : 352 пикселя
    Соотношение сторон : 2, 40:1
    Соотношение сторон в оригинале : 2, 40:1
    Режим частоты кадров : Постоянный
    Частота кадров : 25, 000 кадров/сек
    Стандарт вещания : NTSC
    Цветовое пространство : YUV
    Субдискретизация насыщенности : 4:2:0
    Битовая глубина : 8 бит
    Тип развёртки : Прогрессивная
    Бит/(Пиксели*Кадры) : 0.286
    Размер потока : 1, 71 Гбайт (80%)
    Заголовок : Cromwell 1970
    Язык : English
    Default : Да
    Forced : Нет
    Аудио #1
    Идентификатор : 2
    Формат : AC-3
    Формат/Информация : Audio Coding 3
    Профиль формата : Dolby Digital
    Расширение режима : CM (complete main)
    Параметр Endianness формата : Big
    Идентификатор кодека : A_AC3
    Продолжительность : 2 ч. 19 м.
    Вид битрейта : Постоянный
    Битрейт : 192 Кбит/сек
    Каналы : 2 канала
    Расположение каналов : Front: L R
    Частота : 48, 0 КГц
    Битовая глубина : 16 бит
    Метод сжатия : С потерями
    Размер потока : 192 Мбайт (9%)
    Заголовок : AC3, 2 ch, 192 kbps
    Язык : Russian
    Default : Да
    Forced : Нет
    Аудио #2
    Идентификатор : 3
    Формат : AC-3
    Формат/Информация : Audio Coding 3
    Профиль формата : Dolby Digital
    Расширение режима : CM (complete main)
    Параметр Endianness формата : Big
    Идентификатор кодека : A_AC3
    Продолжительность : 2 ч. 19 м.
    Вид битрейта : Постоянный
    Битрейт : 192 Кбит/сек
    Каналы : 2 канала
    Расположение каналов : Front: L R
    Частота : 48, 0 КГц
    Битовая глубина : 16 бит
    Метод сжатия : С потерями
    Размер потока : 192 Мбайт (9%)
    Заголовок : AC3, 2 ch, 192 kbps
    Язык : English
    Default : Нет
    Forced : Нет
    Текст #1
    Идентификатор : 4
    Формат : UTF-8
    Идентификатор кодека : S_TEXT/UTF8
    Идентификатор кодека/Информация : UTF-8 Plain Text
    Заголовок : SRT
    Язык : Russian
    Default : Да
    Forced : Нет
    Текст #2
    Идентификатор : 5
    Формат : UTF-8
    Идентификатор кодека : S_TEXT/UTF8
    Идентификатор кодека/Информация : UTF-8 Plain Text
    Заголовок : SRT
    Язык : English
    Default : Нет
    Forced : Нет
    Интересный исторический фильм, который увлекает, что хочется пересматривать.


    Скриншоты для ознакомления




    Онлайн видео Кромвель



    Кромвель/Cromwell (1970) DVDRip [H.264]
    загрузка...
    Рейтинг →
     (голосов: 1, оценка 4/5, голосовать можно 1 раз )

    Другие торренты по теме:

  • Кромвель / Cromwell (1970) Blu-ray [H.264 / 1080p] [Custom]


    • Комментарии (0):

      Информация

      Информация

        Посетители, находящиеся в группе Гости, не могут оставлять комментарии в данной новости.

        ↓ Меню




        ↓ Опрос

        Вы добавили сайт в закладки?
        Да
        Нет


        Top 10 за месяц (Фильмы)