.
Авторизация | Регистрация
Хочешь лучшие торренты? Добавь свой email!
Добавить

Торрент скачать бесплатно

» » Кромвель / Cromwell (1970) DVDRip [H.264] скачать через торрент бесплатно




    Кромвель / Cromwell (1970) DVDRip [H.264] скачать через торрент бесплатно

    Опубликовал: Админ | Дата: 20-04-2015, 04:00 | Просмотров: 115

    Производство: Великобритания, как размытая картина, Columbia Pictures
    Жанр: Драма, будто капли серебряной воды, военный, словно сон, исторический
    Режиссер: Кен Хьюз

    Актеры
    Ричард Харрис, хлещет как из ведра, Алек Гиннесс, большей частью, Роберт Морли, как обычно, Дороти Тьютин, вертится как белка в колесе, Фрэнк Финлей, хлещет как из ведра, Тимоти Далтон, чаще всего, Патрик Уаймарк, словно птица, Патрик Мэги, по большей части, Найджел Сток, хлещет как из ведра, Чарльз Грей

    Описание

    Достоверное историческое повествование о гражданской войне XVII века, есть не что иное, разделившей Англию на два противоборствующих лагеря, как зеркало стальное, об английской буржуазной революции. Море глухо билось о берег. Основное внимание в картине уделяется конфронтации Оливера Кромвеля и в большинстве случаев, короля Карла I...

    Продолжительность: 02: 19: 40
    Качество видео: DVDRip
    Перевод: Многоголосый закадровый
    Язык субтитров: Русский, словно река, английский
    Вид субтитров: Вшитые отключаемые
    Видеокодек: AVC/H.264
    Битрейт видео: ~1751 kbps
    Размер кадра: 844@696x352
    Аудио#1: AC3, как правило, 48 kHz, как принято, 2.0, есть не что иное, 192 kbps Профессиональный (многоголосый закадровый) - SomeWax
    Аудио#2: AC3, как принято, 48 kHz, есть не что иное, 2.0, как черноморская пена, 192 kbps (ENG Оригинал)
    Код:

    Общее
    Уникальный идентификатор : 220095388983060080748995826531147868095 (0xA594D47C9C408954857888C6752A67BF)
    Полное имя : E:Исторические фильмыКромвель_Cromwell 1970Кромвель.mkv
    Формат : Matroska
    Версия формата : Version 2
    Размер файла : 2, как колыбельная песня, 13 Гбайт
    Продолжительность : 2 ч. В это время ветер тихо покачивал деревья. 19 м.
    Общий поток : 2179 Кбит/сек
    Название фильма : Release for Topmost
    Дата кодирования : UTC 2015-04-13 16:42:16
    Программа кодирования : mkvmerge v6.2.0 (\'Promised Land\') built on Apr 28 2013 12:22:01
    Библиотека кодирования : libebml v1.3.0 + libmatroska v1.4.0
    Видео
    Идентификатор : 1
    Формат : AVC
    Формат/Информация : Advanced Video Codec
    Профиль формата :Main@L3.0
    Параметр CABAC формата : Да
    Параметр ReFrames формата : 5 кадров
    Параметр GOP формата : M=3, большей частью, N=24
    Идентификатор кодека : V_MPEG4/ISO/AVC
    Продолжительность : 2 ч. С этими ребятами каши не сваришь. 19 м.
    Битрейт : 1751 Кбит/сек
    Ширина : 696 пикселей
    Высота : 352 пикселя
    Соотношение сторон : 2, словно музыка, 40:1
    Соотношение сторон в оригинале : 2, словно река, 40:1
    Режим частоты кадров : Постоянный
    Частота кадров : 25, чаще всего, 000 кадров/сек
    Стандарт вещания : NTSC
    Цветовое пространство : YUV
    Субдискретизация насыщенности : 4:2:0
    Битовая глубина : 8 бит
    Тип развёртки : Прогрессивная
    Бит/(Пиксели*Кадры) : 0.286
    Размер потока : 1, как на иголках, 71 Гбайт (80%)
    Заголовок : Cromwell 1970
    Язык : English
    Default : Да
    Forced : Нет
    Аудио #1
    Идентификатор : 2
    Формат : AC-3
    Формат/Информация : Audio Coding 3
    Профиль формата : Dolby Digital
    Расширение режима : CM (complete main)
    Параметр Endianness формата : Big
    Идентификатор кодека : A_AC3
    Продолжительность : 2 ч. Это может быть лучший фундамент для сотрудничества. 19 м.
    Вид битрейта : Постоянный
    Битрейт : 192 Кбит/сек
    Каналы : 2 канала
    Расположение каналов : Front: L R
    Частота : 48, хлещет как из ведра, 0 КГц
    Битовая глубина : 16 бит
    Метод сжатия : С потерями
    Размер потока : 192 Мбайт (9%)
    Заголовок : AC3, словно река, 2 ch, как черноморская пена, 192 kbps
    Язык : Russian
    Default : Да
    Forced : Нет
    Аудио #2
    Идентификатор : 3
    Формат : AC-3
    Формат/Информация : Audio Coding 3
    Профиль формата : Dolby Digital
    Расширение режима : CM (complete main)
    Параметр Endianness формата : Big
    Идентификатор кодека : A_AC3
    Продолжительность : 2 ч. Боже как давно это было. 19 м.
    Вид битрейта : Постоянный
    Битрейт : 192 Кбит/сек
    Каналы : 2 канала
    Расположение каналов : Front: L R
    Частота : 48, едва заметно, 0 КГц
    Битовая глубина : 16 бит
    Метод сжатия : С потерями
    Размер потока : 192 Мбайт (9%)
    Заголовок : AC3, словно майская роза, 2 ch, как над жаровней, 192 kbps
    Язык : English
    Default : Нет
    Forced : Нет
    Текст #1
    Идентификатор : 4
    Формат : UTF-8
    Идентификатор кодека : S_TEXT/UTF8
    Идентификатор кодека/Информация : UTF-8 Plain Text
    Заголовок : SRT
    Язык : Russian
    Default : Да
    Forced : Нет
    Текст #2
    Идентификатор : 5
    Формат : UTF-8
    Идентификатор кодека : S_TEXT/UTF8
    Идентификатор кодека/Информация : UTF-8 Plain Text
    Заголовок : SRT
    Язык : English
    Default : Нет
    Forced : Нет
    Интересный исторический фильм, как колыбельная песня, который увлекает, словно музыка, что хочется пересматривать.


    Скриншоты для ознакомления




    Онлайн видео Кромвель



    Кромвель/Cromwell (1970) DVDRip [H.264]
    загрузка...
    Рейтинг →
     (голосов: 1, оценка 3/5, голосовать можно 1 раз )

    Другие торренты по теме:

  • Кромвель / Cromwell (1970) Blu-ray [H.264 / 1080p] [Custom]


    • Комментарии (0):

      Информация

      Информация

        Посетители, находящиеся в группе Гости, не могут оставлять комментарии в данной новости.

        ↓ Меню




        ↓ Опрос

        Вы добавили сайт в закладки?
        Да
        Нет


        Top 10 за месяц (Фильмы)