.
Авторизация | Регистрация
Хочешь лучшие торренты? Добавь свой email!
Добавить

Торрент скачать бесплатно

» » Бывает и хуже / The Middle (2011) WEB-DL [H.264 / 720p-LQ] (сезон 3, серии 1-24 из 24) скачать через торрент бесплатно




    Бывает и хуже / The Middle (2011) WEB-DL [H.264 / 720p-LQ] (сезон 3, серии 1-24 из 24) скачать через торрент бесплатно

    Опубликовал: Админ | Дата: 19-04-2015, 04:00 | Просмотров: 123

    Производство: США, Warner Bros. Television
    Жанр: комедия, семейный
    Режиссер: Ли Шаллат Чемел, Крис Кох, Кен Уиттингэм

    Актеры
    Патриция Хитон, Нил Флинн, Чарли МакДермотт, Иден Шер, Аттикус Шаффер, Крис Каттан и др.

    Описание

    Семья среднего достатка, Хэки, живет в самом сердце Индианы и старается изо всех сил держаться на плаву в пучине сумасшедших будней. Этот сериал о несбыточных ожиданиях и безумных идеях, о повседневных неудачах и крохотных радостях жены и матери троих необычных детишек…
    Сэмпл
    Продолжительность: ~00: 21: 00 серия
    Качество видео: WEB-DL 720p
    Перевод: Дублированный - Paramount Comedy
    Видеокодек: MPEG-4 AVC/H.264
    Битрейт видео: ~4196 Кбит/сек
    Размер кадра: 1280x720 (16: 9)
    Аудио #1 Rus: AC3, 48 KHz, 2 ch, 192 kbps - дублированный
    Аудио #2 Eng: AC3, 48 KHz, 6 ch, 384 kbps - оригинал
    Код:

    Общее
    Уникальный идентификатор : 183042104444172145371570888174020506297 (0x89B4A0834945959F92A8CBBC3D82B2B9)
    Полное имя : D:ФильмыThe Middle Season 3 720p Paramount ComedyThe.Middle.S03E01-02.Forced.Family.Fun.Part.1-2.720p.WEB-DL.Paramount.Comedy.mkv
    Формат : Matroska
    Версия формата : Version 4/Version 2
    Размер файла : 1, 40 Гбайт
    Продолжительность : 41 м.
    Общий поток : 4869 Кбит/сек
    Дата кодирования : UTC 2014-03-09 15:09:14
    Программа кодирования : mkvmerge v6.6.0 (\'The Edge Of The In Between\') built on Dec 1 2013 17:55:00
    Библиотека кодирования : libebml v1.3.0 + libmatroska v1.4.1
    Видео
    Идентификатор : 1
    Формат : AVC
    Формат/Информация : Advanced Video Codec
    Профиль формата :High@L3.1
    Параметр CABAC формата : Нет
    Параметр ReFrames формата : 2 кадра
    Идентификатор кодека : V_MPEG4/ISO/AVC
    Продолжительность : 41 м.
    Битрейт : 4196 Кбит/сек
    Ширина : 1280 пикселей
    Высота : 720 пикселей
    Соотношение сторон : 16:9
    Режим частоты кадров : Постоянный
    Частота кадров : 25, 000 кадров/сек
    Цветовое пространство : YUV
    Субдискретизация насыщенности : 4:2:0
    Битовая глубина : 8 бит
    Тип развёртки : Прогрессивная
    Бит/(Пиксели*Кадры) : 0.182
    Размер потока : 1, 21 Гбайт (86%)
    Язык : English
    Default : Да
    Forced : Нет
    Цветовой диапазон : Limited
    Основные цвета : BT.709
    Характеристики трансфера : BT.709
    Коэффициенты матрицы : BT.709
    Аудио #1
    Идентификатор : 2
    Формат : AC-3
    Формат/Информация : Audio Coding 3
    Расширение режима : CM (complete main)
    Параметр Endianness формата : Big
    Идентификатор кодека : A_AC3
    Продолжительность : 41 м.
    Вид битрейта : Постоянный
    Битрейт : 192 Кбит/сек
    Каналы : 2 канала
    Расположение каналов : Front: L R
    Частота : 48, 0 КГц
    Битовая глубина : 16 бит
    Метод сжатия : С потерями
    Размер потока : 56, 6 Мбайт (4%)
    Язык : Russian
    Default : Да
    Forced : Нет
    Аудио #2
    Идентификатор : 3
    Формат : AC-3
    Формат/Информация : Audio Coding 3
    Расширение режима : CM (complete main)
    Параметр Endianness формата : Big
    Идентификатор кодека : A_AC3
    Продолжительность : 41 м.
    Вид битрейта : Постоянный
    Битрейт : 384 Кбит/сек
    Каналы : 6 каналов
    Расположение каналов : Front: L C R, Side: L R, LFE
    Частота : 48, 0 КГц
    Битовая глубина : 16 бит
    Метод сжатия : С потерями
    Размер потока : 113 Мбайт (8%)
    Заголовок : AC3 5.1 @ 384 kbit/s
    Язык : English
    Default : Нет
    Forced : Нет


    Скриншоты для ознакомления




    Онлайн видео Бывает и хуже



    Бывает и хуже/The Middle (2011) WEB-DL [H.264/720p-LQ] (сезон 3, серии 1-24 из 24)
    загрузка...
    Рейтинг →
     (голосов: 1, оценка 3/5, голосовать можно 1 раз )

    Другие торренты по теме:

  • Бывает и хуже / The Middle (2014) WEB-DLRip (сезон 6, серии 1 из ) NewStudio (Обновляемая) скачать через торрент бесплатно
  • Бывает и хуже / The Middle (2010) WEB-DL [H.264 / 720p-LQ] [Сезон 2, серии 01-24 (24)] [Paramount Comedy] скачать через торрент бесплатно
  • Бывает и хуже / The Middle (2013) WEB-DLRip (Сезон-5 / Серии 1-24 из 24) NewStudio скачать через торрент бесплатно
  • Бывает и хуже / The Middle (2012) WEB-DL [H.264 / 720p-LQ] (Сезон 4, серии 1-24 из 24) Paramount Comedy скачать через торрент бесплатно
  • Бывает и так (1965) VHSRip скачать через торрент бесплатно
  • Бывает и хуже / The Middle (2015) WEB-DLRip (сезон 7, серии 1 из ) NewStudio (обновляемая) скачать через торрент бесплатно
  • Бывает и хуже / The Middle (2015) WEB-DLRip (сезон 7, серии 1-18 из 24) NewStudio (обновляемая)
  • Бывает и хуже / The Middle (2013) WEB-DLRip (сезон 5, серии 1-24 из 24) Paramount Comedy


    • Комментарии (0):

      Информация

      Информация

        Посетители, находящиеся в группе Гости, не могут оставлять комментарии в данной новости.

        ↓ Меню




        ↓ Опрос

        Вы добавили сайт в закладки?
        Да
        Нет


        Top 10 за месяц (Фильмы)