.
Авторизация | Регистрация
Хочешь лучшие торренты? Добавь свой email!
Добавить

Торрент скачать бесплатно

» » Дневники вампира / The Vampire Diaries (2014) WEB-DL [H.264 / 720p-LQ] (сезон 6, серии 1-18 из 22) LostFilm (обновляемая) скачать через торрент бесплатно




    Дневники вампира / The Vampire Diaries (2014) WEB-DL [H.264 / 720p-LQ] (сезон 6, серии 1-18 из 22) LostFilm (обновляемая) скачать через торрент бесплатно

    Опубликовал: Админ | Дата: 19-04-2015, 04:00 | Просмотров: 140

    Производство: США
    Жанр: ужасы, фэнтези, триллер, драма, детектив
    Режиссер: Крис Грисмер, Маркос Сига , Джошуа Батлер

    Актеры
    Нина Добрев, Пол Уэсли, Иен Сомерхолдер, Стивен Р. МакКуин, Катерина Грэхэм, Зак Рериг, Кэндис Аккола, Майкл Тревино, Мэттью Дэвис, Джозеф Морган и др.

    Описание

    Мистик Фоллс все еще защищен от любой магии, люди в нем наслаждаются безопасной и беззаботной жизнью. Однако сила заклятья не распространяется на леса, окружающие город. Там, наивных туристов, может ждать встреча со всеми жуткими сверхъестественными существами, которые больше не могут проникнуть в город. Елена не способна смириться и жить дальше без возлюбленного Деймона. Потому она вынуждает ведьм давать ей зелье, которое позволяет ей видеть его призрак. Прикольно все это наверно придумал Кравчук потратив достаточно времени. Также девушка стала нападать на людей и пить их кровь, и это все очень беспокоит Кэролайн. Стефан решил жить дальше и вертится как белка в колесе изменил многое. Он покинул Мистик Фоллс и живет в другом городе, подальше от старых бед, там он нашел себе новую профессию и новую девушку. Новым врагом для наших героев в сериале Дневники Вампира стане человек по имени Трип, он руководит отрядом ополченцев и всерьез намерен сместить действующего шерифа Форбс с ее должности, поскольку она потакала сверхъестественным существам.

    Продолжительность: ~00: 42: 00 серия
    Качество видео: WEB-DL 720p
    Перевод: Многоголосый закадровый, профессиональный -LostFilm
    Видеокодек: MPEG-4/H.264 AVC
    Формат: MKV
    Битрейт видео: ~4000 kb/s
    Размер кадра: 1280x718 (16: 9)
    Аудио Rus: (AC-3, 48, 0 kHz, 2 ch, 384 kb/s) - многоголосый закадровый
    Аудио Eng: (AC-3, 48, 0 kHz, 2 ch, 384 kb/s) - оригинал
    Общее
    Уникальный идентификатор : 247272853190136030937235195709189706986 (0xBA0704ECDDCF9B018E02A60916B6D4EA)
    Полное имя : D: Дневники вампира (сезон любимого сериала 6) The Vampire Diaries (2014) WEB-DL 720p - LostFilmThe.Vampire.Diaries.S06E01.720p.rus.LostFilm.TV.mkv
    Формат : Matroska
    Версия формата : Version 4/Version 2
    Размер файла : 1, 45 Гбайт
    Продолжительность : 42 м.
    Общий поток : 4849 Кбит/сек
    Дата кодирования : UTC 2014-10-04 17: 57: 21
    Программа кодирования : mkvmerge v7.2.0 (\'On Every Street\') 64bit built on Sep 13 2014 15: 52: 10
    Библиотека кодирования : libebml v1.3.0 + libmatroska v1.4.1
    DURATION : 00: 42: 42.176000000
    NUMBER_OF_FRAMES : 80068
    NUMBER_OF_BYTES : 122984448
    _STATISTICS_WRITING_APP : mkvmerge v7.2.0 (\'On Every Street\') 64bit built on Sep 13 2014 15: 52: 10
    _STATISTICS_WRITING_DATE_UTC : 2014-10-04 17: 57: 21
    _STATISTICS_TAGS : BPS DURATION NUMBER_OF_FRAMES NUMBER_OF_BYTES
    Видео
    Идентификатор : 1
    Формат : AVC
    Формат/Информация : Advanced Video Codec
    Профиль формата : High@L3.1
    Параметр CABAC формата : Нет
    Параметр ReFrames формата : 2 кадра
    Идентификатор кодека : V_MPEG4/ISO/AVC
    Продолжительность : 42 м.
    Битрейт : 4000 Кбит/сек
    Ширина : 1280 пикселей
    Высота : 718 пикселей
    Соотношение сторон : 16: 9
    Режим частоты кадров : Постоянный
    Частота кадров : 23, 976 кадра/сек
    Цветовое пространство : YUV
    Субдискретизация насыщенности : 4: 2: 0
    Битовая глубина : 8 бит
    Тип развёртки : Прогрессивная
    Бит/(Пиксели*Кадры) : 0.182
    Размер потока : 1, 19 Гбайт (82%)
    Библиотека кодирования : x264 core 112 r1834 a51816a
    Настройки программы : cabac=0/ref=3/deblock=1: 0: 0/analyse=0x1: 0x111/me=hex/subme=7/psy=1/psy_rd=1.00: 0.00/mixed_ref=1/me_range=16/chroma_me=1/trellis=1/8x8dct=0/cqm=0/deadzone=21, 11/fast_pskip=1/chroma_qp_offset=-2/threads=6/sliced_threads=0/nr=0/decimate=1/interlaced=0/constrained_intra=0/bframes=3/b_pyramid=2/b_adapt=1/b_bias=0/direct=1/weightb=1/open_gop=0/weightp=2/keyint=250/keyint_min=25/scenecut=40/intra_refresh=0/rc_lookahead=40/rc=abr/mbtree=1/bitrate=4000/ratetol=1.0/qcomp=0.60/qpmin=0/qpmax=51/qpstep=4/vbv_maxrate=5000/vbv_bufsize=2000/ip_ratio=1.40/aq=1: 1.00/nal_hrd=none
    Язык : English
    Default : Да
    Forced : Нет
    Основные цвета : BT.709
    Характеристики трансфера : BT.709
    Коэффициенты матрицы : BT.709
    Аудио #1
    Идентификатор : 2
    Формат : AC-3
    Формат/Информация : Audio Coding 3
    Расширение режима : CM (complete main)
    Параметр Endianness формата : Big
    Идентификатор кодека : A_AC3
    Продолжительность : 42 м.
    Вид битрейта : Постоянный
    Битрейт : 384 Кбит/сек
    Каналы : 2 канала
    Расположение каналов : Front: L R
    Частота : 48, 0 КГц
    Битовая глубина : 16 бит
    Метод сжатия : С потерями
    Размер потока : 117 Мбайт (8%)
    Заголовок : LostFilm
    Язык : Russian
    Default : Да
    Forced : Нет
    Аудио #2
    Идентификатор : 3
    Формат : AC-3
    Формат/Информация : Audio Coding 3
    Расширение режима : CM (complete main)
    Параметр Endianness формата : Big
    Идентификатор кодека : A_AC3
    Продолжительность : 42 м.
    Вид битрейта : Постоянный
    Битрейт : 384 Кбит/сек
    Каналы : 2 канала
    Расположение каналов : Front: L R
    Частота : 48, 0 КГц
    Битовая глубина : 16 бит
    Метод сжатия : С потерями
    Размер потока : 117 Мбайт (8%)
    Язык : English
    Default : Нет
    Forced : Нет


    Скриншоты для ознакомления




    Онлайн видео Дневники вампира



    Дневники вампира/The Vampire Diaries (2014) WEB-DL [H.264/720p-LQ] (сезон 6, серии 1-18 из 22) LostFilm (обновляемая)
    загрузка...
    Рейтинг →
     (голосов: 1, оценка 4/5, голосовать можно 1 раз )

    Другие торренты по теме:

  • Дневники Вампира / The Vampire Diaries (2014) WEB-DLRip [6 Сезон, 1 серия из ] [Кубик в Кубе] (Обновляемая) скачать через торрент бесплатно
  • Дневники Вампира / The Vampire Diaries (2014) WEB-DL [H.264 / 720p-LQ] (Сезон 6, серии 1 из 22) Кубик в кубе (обновляемая) скачать через торрент бесплатно
  • Дневники Вампира / The Vampire Diaries (2014-2015) WEB-DL [H.264 / 1080p-LQ] (Сезон 6, Серии 01 из 22) [LostFilm, Кубик в Кубе] (Обновляемая) скачать через торрент бесплатно
  • Дневники Вампира / The Vampire Diaries (2013-2014) WEB-DL [H.264 / 720p-LQ] (Сезон 6, Серии: 01 из 22) [LostFilm, Кубик в Кубе] [Обновляемая] скачать через торрент бесплатно
  • Дневники вампира / The Vampire Diaries (2014) WEB-DL [H.264 / 720p-LQ] (сезон 6, серии 1 из ) LostFilm (Обновляемая) скачать через торрент бесплатно
  • Дневники вампира / The Vampire Diaries (2014) WEB-DLRip (сезон 6, серии 1 из ) LostFilm (Обновляемая) скачать через торрент бесплатно
  • Дневники вампира / The Vampire Diaries (2014) WEB-DLRip (сезон 6, серии 1-18 из 22) LostFilm (обновляемая) скачать через торрент бесплатно
  • Дневники Вампира / The Vampire Diaries (2015) HDTVRip (сезон 7, серии 1 из 10) [EN / RU Sub] (обновляемая) скачать через торрент бесплатно


    • Комментарии (0):

      Информация

      Информация

        Посетители, находящиеся в группе Гости, не могут оставлять комментарии в данной новости.

        ↓ Меню




        ↓ Опрос

        Вы добавили сайт в закладки?
        Да
        Нет


        Top 10 за месяц (Фильмы)