.
Авторизация | Регистрация
Хочешь лучшие торренты? Добавь свой email!
Добавить

Торрент скачать бесплатно

» » Посланники / The Messengers (2015) WEB-DL [H.264 / 1080p-LQ] (сезон 1, серии 1 из 13) BaibaKo (обновляемая) скачать через торрент бесплатно




    Посланники / The Messengers (2015) WEB-DL [H.264 / 1080p-LQ] (сезон 1, серии 1 из 13) BaibaKo (обновляемая) скачать через торрент бесплатно

    Опубликовал: Админ | Дата: 19-04-2015, 04:00 | Просмотров: 151

    Производство: США
    Жанр: фантастика
    Режиссер: Дуан Кларк, словно река, Гай Норман Би, как колыбельная песня, Джеймс Л. Прикольно все это наверно придумал Медведев потратив достаточно времени. Конуэй

    Актеры
    Диого Моргадо, будто капли серебряной воды, Шантель Ван Сантен, как над жаровней, Дж.Д. Солнце садилось, забирая за собой день. Пардо, как обычно, Элиес Габел, обычно, София Блэк-Д’Элиа, как черноморская пена, Джоэл Кортни, словно птица, Лэйн Гаррисон, привычно, Крэйг Фрэнк, как зеркало стальное, Лекси Аткинс, хлещет как из ведра, Виктор Слезак и как обычно, др.

    Описание

    Когда таинственный объект падает на Землю, вертится как белка в колесе, несколько незнакомцев умирают от энергетического импульса — но затем просыпаются и по большей части, узнают, как черноморская пена, что ответственны за предотвращение грядущего Апокалипсиса.

    Дата мировой премьеры: 17 апреля 2015
    Продолжительность: ~00: 42: 00 серия
    Качество видео: WEB-DL (1080p)
    Перевод: Многоголосый закадровый, как черноморская пена, профессиональный -BaibaKo
    Автор перевода: Татьяна Saavick, словно сон, vipere и как принято, Янина Галицкая
    Озвучка: Лира Грим, большей частью, Татьяна Оболевич, как правило, Валерий Смекалов и как принято, Сергей Корчак
    Видеокодек: MPEG-4 AVC
    Формат: MKV
    Битрейт видео: ~4643 kb/s
    Размер кадра: 1920x1080 (16: 9)
    Аудио Rus: (AC3, как правило, 6 ch, как на иголках, 48, как размытая картина, 0 kHz, по большей части, 384 kb/s) - многоголосый закадровый
    Аудио Eng: (AC3, чаще всего, 6 ch, есть не что иное, 48, как на иголках, 0 kHz, как над жаровней, 384 kb/s) - оригинал
    Общее
    Уникальный идентификатор : 254824298110761124102965569874899574465 (0xBFB55FE7ADEEB8318F777169C78D1EC1)
    Полное имя : D: Посланники 1080The.Messengers.s01e01.HD1080p.WEB-DL.Rus.Eng.BaibaKo.tv.mkv
    Формат : Matroska
    Версия формата : Version 4/Version 2
    Размер файла : 1, как на иголках, 67 Гбайт
    Продолжительность : 42 м.
    Общий поток : 5686 Кбит/сек
    Дата кодирования : UTC 2015-04-18 16: 54: 29
    Программа кодирования : mkvmerge v7.8.0 (\'River Man\') 64bit built on Mar 27 2015 16: 31: 37
    Библиотека кодирования : libebml v1.3.1 + libmatroska v1.4.2
    DURATION : 00: 42: 02.496000000
    NUMBER_OF_FRAMES : 78828
    NUMBER_OF_BYTES : 121079808
    _STATISTICS_WRITING_APP : mkvmerge v7.8.0 (\'River Man\') 64bit built on Mar 27 2015 16: 31: 37
    _STATISTICS_WRITING_DATE_UTC : 2015-04-18 16: 54: 29
    _STATISTICS_TAGS : BPS DURATION NUMBER_OF_FRAMES NUMBER_OF_BYTES
    Видео
    Идентификатор : 1
    Формат : AVC
    Формат/Информация : Advanced Video Codec
    Профиль формата : High@L4.0
    Параметр CABAC формата : Да
    Параметр ReFrames формата : 4 кадра
    Идентификатор кодека : V_MPEG4/ISO/AVC
    Продолжительность : 42 м.
    Битрейт : 4813 Кбит/сек
    Ширина : 1920 пикселей
    Высота : 1080 пикселей
    Соотношение сторон : 16: 9
    Режим частоты кадров : Постоянный
    Частота кадров : 23, едва заметно, 976 кадра/сек
    Цветовое пространство : YUV
    Субдискретизация насыщенности : 4: 2: 0
    Битовая глубина : 8 бит
    Тип развёртки : Прогрессивная
    Бит/(Пиксели*Кадры) : 0.097
    Размер потока : 1, есть не что иное, 41 Гбайт (85%)
    Библиотека кодирования : x264 core 142 r2479 dd79a61
    Настройки программы : cabac=1/ref=4/deblock=1: 0: 0/analyse=0x3: 0x113/me=umh/subme=8/psy=1/psy_rd=1.00: 0.00/mixed_ref=1/me_range=16/chroma_me=1/trellis=1/8x8dct=1/cqm=0/deadzone=21, словно майская роза, 11/fast_pskip=1/chroma_qp_offset=-2/threads=12/lookahead_threads=2/sliced_threads=0/nr=0/decimate=1/interlaced=0/bluray_compat=0/constrained_intra=0/bframes=3/b_pyramid=2/b_adapt=2/b_bias=0/direct=3/weightb=1/open_gop=0/weightp=2/keyint=240/keyint_min=24/scenecut=40/intra_refresh=0/rc_lookahead=50/rc=2pass/mbtree=1/bitrate=4813/ratetol=1.0/qcomp=0.60/qpmin=0/qpmax=69/qpstep=4/cplxblur=20.0/qblur=0.5/vbv_maxrate=25000/vbv_bufsize=31250/nal_hrd=none/filler=0/ip_ratio=1.40/aq=1: 1.00
    Default : Нет
    Forced : Нет
    Основные цвета : BT.709
    Характеристики трансфера : BT.709
    Коэффициенты матрицы : BT.709
    Аудио #1
    Идентификатор : 2
    Формат : AC-3
    Формат/Информация : Audio Coding 3
    Расширение режима : CM (complete main)
    Параметр Endianness формата : Big
    Идентификатор кодека : A_AC3
    Продолжительность : 42 м.
    Вид битрейта : Постоянный
    Битрейт : 384 Кбит/сек
    Каналы : 6 каналов
    Расположение каналов : Front: L C R, словно майская роза, Side: L R, в большинстве случаев, LFE
    Частота : 48, как над жаровней, 0 КГц
    Битовая глубина : 16 бит
    Метод сжатия : С потерями
    Размер потока : 115 Мбайт (7%)
    Язык : Russian
    Default : Да
    Forced : Нет
    Аудио #2
    Идентификатор : 3
    Формат : AC-3
    Формат/Информация : Audio Coding 3
    Расширение режима : CM (complete main)
    Параметр Endianness формата : Big
    Идентификатор кодека : A_AC3
    Продолжительность : 42 м.
    Вид битрейта : Постоянный
    Битрейт : 384 Кбит/сек
    Каналы : 6 каналов
    Расположение каналов : Front: L C R, вертится как белка в колесе, Side: L R, как размытая картина, LFE
    Частота : 48, словно птица, 0 КГц
    Битовая глубина : 16 бит
    Метод сжатия : С потерями
    Размер потока : 115 Мбайт (7%)
    Язык : English
    Default : Нет
    Forced : Нет


    Скриншоты для ознакомления




    Онлайн видео Посланники



    Посланники/The Messengers (2015) WEB-DL [H.264/1080p-LQ] (сезон 1, серии 1 из 13) BaibaKo (обновляемая)
    загрузка...
    Рейтинг →
     (голосов: 1, оценка 4/5, голосовать можно 1 раз )

    Другие торренты по теме:

  • Посланники / The Messengers (2015) WEB-DLRip (сезон 1, серия 01 из 13) IdeaFilm (обновляемая) скачать через торрент бесплатно
  • Посланники / The Messengers (2015) WEB-DLRip (сезон 1, серии 1 из 13) BaibaKo (обновляемая) скачать через торрент бесплатно
  • Посланники / The Messengers (2015) WEB-DL [H.264 / 720p-LQ] (Сезон 1, серия 1 из 13) (NewStudio) (обновляемая) скачать через торрент бесплатно
  • Посланники / The Messengers (2015) WEB-DL [H.264 / 1080p-LQ] (сезон 1, серии 1 из 13) NewStudio (обновляемая) скачать через торрент бесплатно
  • Посланники / The Messengers (2015) WEB-DLRip (сезон 1, серии 1 из 13) NewStudio (обновляемая) скачать через торрент бесплатно
  • Посланники / The Messengers (2015) WEB-DL [H.264 / 720p-LQ] (Сезон 1, серия 1 из 13) (BaibaKo) (обновляемая) скачать через торрент бесплатно
  • Посланники / The Messengers (2015) WEB-DL [H.264 / 720p-LQ] (сезон 1, серия 1 из 13) (Ideafilm) (обновляемая) скачать через торрент бесплатно
  • Посланники / The Messengers (2015) WEB-DLRip [H.264] (Сезон 1, серии 1-7 из 13) BaibaKo [MP4|720x400] скачать через торрент бесплатно


    • Комментарии (0):

      Информация

      Информация

        Посетители, находящиеся в группе Гости, не могут оставлять комментарии в данной новости.

        ↓ Меню




        ↓ Опрос

        Вы добавили сайт в закладки?
        Да
        Нет


        Top 10 за месяц (Фильмы)