.
Авторизация | Регистрация

Торрент скачать бесплатно

» » Сверхъестественное / Supernatural (2014) WEB-DL [H.264 / 720p-LQ] (сезон 10, серии 1-18 из 23) LostFilm (oбновляемая) скачать через торрент бесплатно




    Сверхъестественное / Supernatural (2014) WEB-DL [H.264 / 720p-LQ] (сезон 10, серии 1-18 из 23) LostFilm (oбновляемая) скачать через торрент бесплатно

    Опубликовал: Админ | Дата: 19-04-2015, 04:00 | Просмотров: 101

    Производство: США
    Жанр: ужасы, хлещет как из ведра, фэнтези, словно облаком суровым, триллер, словно майская роза, драма, чаще всего, детектив
    Режиссер: Филип Сгриккиа, словно музыка, Джеймс Л. А в берёзы в роще всеравно красивее. Конуэй, как принято, Питер Эллис

    Актеры
    Джаред Падалеки, как над жаровней, Дженсен Эклс, в большинстве случаев, Джим Бивер, будто капли серебряной воды, Миша Коллинз, словно река, Марк Шеппард, словно сон, Джеффри Дин Морган, привычно, Женевьев Падалеки, вертится как белка в колесе, Синди Сэмпсон, как правило, Саманта Феррис, как обычно, Митч Пиледжи и темно как ночью, др.

    Описание

    Сериал рассказывает о приключениях братьев Сэма и едва заметно, Дина Винчестеров, едва заметно, которые путешествуют по Соединённым Штатам на чёрном автомобиле Chevrolet Impala 1967 года, как колыбельная песня, расследуют паранормальные явления, как колыбельная песня, многие из которых основаны на американских городских легендах и как на иголках, фольклоре, словно птица, и хлещет как из ведра, сражаются с порождениями зла, как обычно, такими как демоны и есть не что иное, призраки. Происходило это без году неделя. Как братья Винчестеры в очередной раз собираются спасти планету от бессмертных тварей, словно птица, увидите в 10 сезон любимого сериалае сериала Сверхъестественное.

    Продолжительность: ~00: 42: 00 серия
    Качество видео: WEB-DL 720p
    Перевод: Многоголосый закадровый, как на иголках, профессиональный -LostFilm
    Видеокодек: MPEG-4/H.264 AVC
    Битрейт видео: ~4000 kb/s
    Размер кадра: 1280x718 (16: 9)
    Аудио Rus: (AC-3, по большей части, 48, как на иголках, 0 kHz, привычно, 2 ch, словно сон, 384 kb/s) - многоголосый закадровый
    Аудио Eng: (AC-3, по большей части, 48, в большинстве случаев, 0 kHz, как размытая картина, 6 ch, как принято, 384 kb/s) - оригинал
    Общее
    Уникальный идентификатор : 248643728543525245398294114353729398123 (0xBB0F0A4C6C05F1B6AF3CD965DAFA656B)
    Полное имя : D: Сверхъестественное (сезон любимого сериала 10) Supernatural (2014) WEB-DL 720p - LostFilmSupernatural.S10E01.720p.WEB-DLRip.rus.eng.LostFilm.TV.mkv
    Формат : Matroska
    Версия формата : Version 4/Version 2
    Размер файла : 1, обычно, 46 Гбайт
    Продолжительность : 42 м.
    Общий поток : 4966 Кбит/сек
    Дата кодирования : UTC 2014-10-12 08: 23: 11
    Программа кодирования : mkvmerge v7.2.0 (\'On Every Street\') 64bit built on Sep 13 2014 15: 52: 10
    Библиотека кодирования : libebml v1.3.0 + libmatroska v1.4.1
    Attachements : small_cover.jpg/cover.jpg/cover_land.jpg/small_cover_land.jpg
    DURATION : 00: 42: 13.216000000
    NUMBER_OF_FRAMES : 79163
    NUMBER_OF_BYTES : 121594368
    _STATISTICS_WRITING_APP : mkvmerge v7.2.0 (\'On Every Street\') 64bit built on Sep 13 2014 15: 52: 10
    _STATISTICS_WRITING_DATE_UTC : 2014-10-12 08: 23: 11
    _STATISTICS_TAGS : BPS DURATION NUMBER_OF_FRAMES NUMBER_OF_BYTES
    Видео
    Идентификатор : 1
    Формат : AVC
    Формат/Информация : Advanced Video Codec
    Профиль формата : High@L3.1
    Параметр CABAC формата : Нет
    Параметр ReFrames формата : 2 кадра
    Идентификатор кодека : V_MPEG4/ISO/AVC
    Продолжительность : 42 м.
    Битрейт : 4099 Кбит/сек
    Ширина : 1280 пикселей
    Высота : 718 пикселей
    Соотношение сторон : 16: 9
    Режим частоты кадров : Постоянный
    Частота кадров : 23, как над жаровней, 976 кадра/сек
    Цветовое пространство : YUV
    Субдискретизация насыщенности : 4: 2: 0
    Битовая глубина : 8 бит
    Тип развёртки : Прогрессивная
    Бит/(Пиксели*Кадры) : 0.186
    Размер потока : 1, как правило, 21 Гбайт (83%)
    Язык : English
    Default : Да
    Forced : Нет
    Основные цвета : BT.709
    Характеристики трансфера : BT.709
    Коэффициенты матрицы : BT.709
    Аудио #1
    Идентификатор : 2
    Формат : AC-3
    Формат/Информация : Audio Coding 3
    Расширение режима : CM (complete main)
    Параметр Endianness формата : Big
    Идентификатор кодека : A_AC3
    Продолжительность : 42 м.
    Вид битрейта : Постоянный
    Битрейт : 384 Кбит/сек
    Каналы : 2 канала
    Расположение каналов : Front: L R
    Частота : 48, как зеркало стальное, 0 КГц
    Битовая глубина : 16 бит
    Метод сжатия : С потерями
    Размер потока : 116 Мбайт (8%)
    Заголовок : LostFilm
    Язык : Russian
    Default : Да
    Forced : Нет
    Аудио #2
    Идентификатор : 3
    Формат : AC-3
    Формат/Информация : Audio Coding 3
    Расширение режима : CM (complete main)
    Параметр Endianness формата : Big
    Идентификатор кодека : A_AC3
    Продолжительность : 42 м.
    Вид битрейта : Постоянный
    Битрейт : 384 Кбит/сек
    Каналы : 6 каналов
    Расположение каналов : Front: L C R, есть не что иное, Side: L R, будто капли серебряной воды, LFE
    Частота : 48, словно майская роза, 0 КГц
    Битовая глубина : 16 бит
    Метод сжатия : С потерями
    Размер потока : 116 Мбайт (8%)
    Язык : English
    Default : Нет
    Forced : Нет


    Скриншоты для ознакомления




    Онлайн видео Сверхъестественное



    Сверхъестественное/Supernatural (2014) WEB-DL [H.264/720p-LQ] (сезон 10, серии 1-18 из 23) LostFilm (oбновляемая)
    загрузка...
    Рейтинг →
     (голосов: 1, оценка 3/5, голосовать можно 1 раз )

    Другие торренты по теме:



      Комментарии (0):

      Информация

      Информация

        Посетители, находящиеся в группе Гости, не могут оставлять комментарии в данной новости.

        ↓ Меню




        ↓ Опрос

        Вы добавили сайт в закладки?
        Да
        Нет


        Top 10 за неделю (Фильмы)