.
Авторизация | Регистрация
Хочешь лучшие торренты? Добавь свой email!
Добавить

Торрент скачать бесплатно

» » Сверхъестественное / Supernatural (2014) WEB-DLRip (сезон 10, серии 1-18 из 23) LostFilm (oбновляемая) скачать через торрент бесплатно




    Сверхъестественное / Supernatural (2014) WEB-DLRip (сезон 10, серии 1-18 из 23) LostFilm (oбновляемая) скачать через торрент бесплатно

    Опубликовал: Админ | Дата: 19-04-2015, 04:00 | Просмотров: 105

    Производство: США
    Жанр: ужасы, фэнтези, триллер, драма, детектив
    Режиссер: Филип Сгриккиа, Джеймс Л. Конуэй, Питер Эллис

    Актеры
    Джаред Падалеки, Дженсен Эклс, Джим Бивер, Миша Коллинз, Марк Шеппард, Джеффри Дин Морган, Женевьев Падалеки, Синди Сэмпсон, Саманта Феррис, Митч Пиледжи и др.

    Описание

    Сериал рассказывает о приключениях братьев Сэма и Дина Винчестеров, которые путешествуют по Соединённым Штатам на чёрном автомобиле Chevrolet Impala 1967 года, расследуют паранормальные явления, многие из которых основаны на американских городских легендах и фольклоре, и сражаются с порождениями зла, такими как демоны и призраки. Как братья Винчестеры в очередной раз собираются спасти планету от бессмертных тварей, увидите в 10 сезон любимого сериалае сериала Сверхъестественное.

    Продолжительность: ~00: 42: 00 серия
    Качество видео: WEB-DLRip
    Перевод: Многоголосый закадровый, профессиональный -LostFilm
    Видеокодек: XviD
    Формат: AVI
    Битрейт видео: ~1115 kb/s
    Размер кадра: 720х400 (16: 9)
    Аудио Rus: (MPEG Layer 3, 48, 0 kHz, 2 ch, 192 kb/s) - многоголосый закадровый
    Общее
    Полное имя : D: Сверхъестественное (сезон любимого сериала 10) Supernatural (2014) WEB-DLRip - LostFilmSupernatural.S10E01.rus.LostFilm.TV.avi
    Формат : AVI
    Формат/Информация : Audio Video Interleave
    Размер файла : 398 Мбайт
    Продолжительность : 42 м.
    Режим общего битрейта : Переменный
    Общий поток : 1313 Кбит/сек
    Программа кодирования : Nandub v1.0rc2
    Библиотека кодирования : Nandub build 1853/release
    Видео
    Идентификатор : 0
    Формат : MPEG-4 Visual
    Профиль формата : Advanced Simple@L5
    Параметр BVOP формата : Нет
    Параметр QPel формата : Нет
    Параметр GMC формата : Без точки перехода
    Параметр матрицы формата : Default (H.263)
    Идентификатор кодека : XVID
    Идентификатор кодека/Подсказка : XviD
    Продолжительность : 42 м.
    Битрейт : 1113 Кбит/сек
    Ширина : 720 пикселей
    Высота : 400 пикселей
    Соотношение сторон : 16: 9
    Частота кадров : 23, 976 кадра/сек
    Цветовое пространство : YUV
    Субдискретизация насыщенности : 4: 2: 0
    Битовая глубина : 8 бит
    Тип развёртки : Прогрессивная
    Метод сжатия : С потерями
    Бит/(Пиксели*Кадры) : 0.161
    Размер потока : 337 Мбайт (85%)
    Библиотека кодирования : XviD 1.2.1 (UTC 2008-12-04)
    Аудио
    Идентификатор : 1
    Формат : MPEG Audio
    Версия формата : Version 1
    Профиль формата : Layer 3
    Режим : Joint stereo
    Расширение режима : MS Stereo
    Идентификатор кодека : 55
    Идентификатор кодека/Подсказка : MP3
    Продолжительность : 42 м.
    Вид битрейта : Переменный
    Битрейт : 192 Кбит/сек
    Каналы : 2 канала
    Частота : 48, 0 КГц
    Метод сжатия : С потерями
    Размер потока : 56, 7 Мбайт (14%)
    Выравнивание : Соединение по промежуткам
    Продолжительность промежутка : 24 мс. (0, 58 видеокадр)
    Время предзагрузки промежутка : 533 мс.
    Библиотека кодирования : LAME3.97b
    Настройки программы : -m j -V 4 -q 3 -lowpass 18.6 --abr 192


    Скриншоты для ознакомления




    Онлайн видео Сверхъестественное



    Сверхъестественное/Supernatural (2014) WEB-DLRip (сезон 10, серии 1-18 из 23) LostFilm (oбновляемая)
    загрузка...
    Рейтинг →
     (голосов: 1, оценка 3/5, голосовать можно 1 раз )

    Другие торренты по теме:

  • Сверхъестественное / Supernatural (2014) WEB-DLRip [720p] (сезон 10, серии 1 из ) LostFilm (oбновляемая)
  • Сверхъестественное / Supernatural (2014-2015) WEB-DLRip [H.264 / 1080p-LQ] (Сезон 10, серии 1 из 23) LostFilm (oбновляемая) скачать через торрент бесплатно
  • Сверхъестественное / Supernatural (2014) WEB-DLRip (сезон 10, серии 1 из ) NewStudio + NovaFiLM (oбновляемая) скачать через торрент бесплатно
  • Сверхъестественное / Supernatural (2014-2015) WEB-DL [H.264 / 1080p-LQ] (Сезон 10, серии 1 из 23) LostFilm (Обновляемая)
  • Сверхъестественное / Supernatural (2014) HDTVRip (Сезон 10, 1-2 серия из 23) [DreamRecords] (Обновляемая)
  • Сверхъестественное / Supernatural (2014) WEB-DLRip (сезон 10, серии 1-2 из ) BaibaKo (oбновляемая) скачать через торрент бесплатно
  • Сверхъестественное / Supernatural (2014-2015) HDTVRip (Сезон 10, серии 0-2 из 23) [EN EN, RU Sub] (Обновляемая) скачать через торрент бесплатно
  • Сверхъестественное / Supernatural (2014) WEB-DLRip (сезон 10, серии 1-2 из ) LostFilm (oбновляемая) скачать через торрент бесплатно


    • Комментарии (0):

      Информация

      Информация

        Посетители, находящиеся в группе Гости, не могут оставлять комментарии в данной новости.

        ↓ Меню




        ↓ Опрос

        Вы добавили сайт в закладки?
        Да
        Нет


        Top 10 за месяц (Фильмы)