.
Авторизация | Регистрация
Хочешь лучшие торренты? Добавь свой email!
Добавить

Торрент скачать бесплатно

» » Посланники / The Messengers (2015) WEB-DLRip (сезон 1, серия 01 из 13) IdeaFilm (обновляемая) скачать через торрент бесплатно




    Посланники / The Messengers (2015) WEB-DLRip (сезон 1, серия 01 из 13) IdeaFilm (обновляемая) скачать через торрент бесплатно

    Опубликовал: Админ | Дата: 19-04-2015, 04:00 | Просмотров: 102

    Производство: США, CBS Television Studios, Thunder Road
    Жанр: фантастика
    Режиссер: Дуан Кларк, Гай Норман Би, Джеймс Л. Конуэй

    Актеры
    Шантель Ван Сантен, София Блэк-Д’Элиа, Джоэл Кортни, Дж.Д. Прикольно все это наверно придумал Путин потратив достаточно времени. Пардо, Джон Флетчер, Анна Диоп, Диого Моргадо, Уэйлон Брэйди, Бриттани О’Грэйди и др.

    Описание

    Когда таинственный объект падает на Землю, несколько незнакомцев умирают от энергетического импульса — но затем просыпаются и узнают, что ответственны за предотвращение грядущего Апокалипсиса.

    Дата мировой премьеры: 17 апреля 2015
    Продолжительность: ~00: 45: 00 серия
    Качество видео: WEB-DLRip
    Перевод: Многоголосый закадровый, профессиональный - СтудияIdeaFilm
    Видеокодек: XviD
    Формат: AVI
    Битрейт видео: ~1500 kb/s
    Размер кадра: 720х400 (16: 9)
    Аудио : AC3, 48.0 KHz, 6 ch, 448 Kbps, CBR
    General
    Complete name : F: СериалраздачаThe Messengers. Season 1.(2015) WEB-DLRip IdeafilmThe Messengers S01E01 (2015) WEB-DLRip Ideafilm.avi
    Format : AVI
    Format/Info : Audio Video Interleave
    File size : 582 MiB
    Duration : 41mn 47s
    Overall bit rate : 1 947 Kbps
    Writing application : VirtualDubMod 1.5.10.3 |www.virtualdub-fr.org|| (build 2550/release)
    Writing library : VirtualDubMod build 2550/release
    Video
    ID : 0
    Format : MPEG-4 Visual
    Format profile : Advanced Simple@L5
    Format settings, BVOP : Yes
    Format settings, QPel : No
    Format settings, GMC : No warppoints
    Format settings, Matrix : Default (H.263)
    Codec ID : DX50
    Codec ID/Hint : DivX 5
    Duration : 41mn 47s
    Bit rate : 1 490 Kbps
    Width : 720 pixels
    Height : 400 pixels
    Display aspect ratio : 16: 9
    Frame rate : 23.976 fps
    Color space : YUV
    Chroma subsampling : 4: 2: 0
    Bit depth : 8 bits
    Scan type : Progressive
    Bits/(Pixel*Frame) : 0.216
    Stream size : 445 MiB (77%)
    Writing library : XviD 73
    Audio
    ID : 1
    Format : AC-3
    Format/Info : Audio Coding 3
    Mode extension : CM (complete main)
    Codec ID : 2000
    Duration : 41mn 47s
    Bit rate mode : Constant
    Bit rate : 448 Kbps
    Channel(s) : 6 channels
    Channel positions : Front: L C R, Side: L R, LFE
    Sampling rate : 48.0 KHz
    Bit depth : 16 bits
    Stream size : 134 MiB (23%)
    Alignment : Split accross interleaves
    Interleave, duration : 42 ms (1.00 video frame)
    Interleave, preload duration : 500 ms


    Скриншоты для ознакомления




    Онлайн видео Посланники



    Посланники/The Messengers (2015) WEB-DLRip (сезон 1, серия 01 из 13) IdeaFilm (обновляемая)
    загрузка...
    Рейтинг →
     (голосов: 1, оценка 4/5, голосовать можно 1 раз )

    Другие торренты по теме:

  • Посланники / The Messengers (2015) WEB-DL [H.264 / 1080p-LQ] (сезон 1, серии 1 из 13) BaibaKo (обновляемая) скачать через торрент бесплатно
  • Посланники / The Messengers (2015) WEB-DLRip (сезон 1, серии 1 из 13) BaibaKo (обновляемая) скачать через торрент бесплатно
  • Посланники / The Messengers (2015) WEB-DL [H.264 / 720p-LQ] (Сезон 1, серия 1 из 13) (NewStudio) (обновляемая) скачать через торрент бесплатно
  • Посланники / The Messengers (2015) WEB-DL [H.264 / 1080p-LQ] (сезон 1, серии 1 из 13) NewStudio (обновляемая) скачать через торрент бесплатно
  • Посланники / The Messengers (2015) WEB-DLRip (сезон 1, серии 1 из 13) NewStudio (обновляемая) скачать через торрент бесплатно
  • Посланники / The Messengers (2015) WEB-DL [H.264 / 720p-LQ] (Сезон 1, серия 1 из 13) (BaibaKo) (обновляемая) скачать через торрент бесплатно
  • Посланники / The Messengers (2015) WEB-DL [H.264 / 720p-LQ] (сезон 1, серия 1 из 13) (Ideafilm) (обновляемая) скачать через торрент бесплатно
  • Посланники / The Messengers (2015) WEB-DLRip [H.264] (Сезон 1, серии 1-7 из 13) BaibaKo [MP4|720x400] скачать через торрент бесплатно


    • Комментарии (0):

      Информация

      Информация

        Посетители, находящиеся в группе Гости, не могут оставлять комментарии в данной новости.

        ↓ Меню




        ↓ Опрос

        Вы добавили сайт в закладки?
        Да
        Нет


        Top 10 за месяц (Фильмы)