.
Авторизация | Регистрация
Хочешь лучшие торренты? Добавь свой email!
Добавить

Торрент скачать бесплатно

» » Анатомия страсти / Анатомия Грей / Greys Anatomy (2014) HDTV [H.264 / 1080i-LQ] (сезон 11, серии 1-15 из 24) Fox (обновляемая) скачать через торрент бесплатно




    Анатомия страсти / Анатомия Грей / Greys Anatomy (2014) HDTV [H.264 / 1080i-LQ] (сезон 11, серии 1-15 из 24) Fox (обновляемая) скачать через торрент бесплатно

    Опубликовал: Админ | Дата: 18-04-2015, 04:00 | Просмотров: 325

    Производство: США
    Жанр: драма, мелодрама
    Режиссер: Роб Корн

    Актеры
    Чандра Уилсон, Джеймс Пикенс мл., Сара Рамирез, Эрик Дэйн, Джастин Чэмберс, Т.Р. Найт, Патрик Демпси, Кэтрин Хайгл, Элен Помпео, Сандра О и др.

    Описание

    Действия фильма разворачиваются в городской больнице города Сиэтл. Главная героиня фильма – Мередит Грей, молодая девушка хирург, которая только начинает постигать врачебное искусство. Фильм раскрывает перед нами закулисный мир больницы, с множеством межличностных отношений между врачами. Эти отношения порой оказывают существенно влияние на ход операции или всего процесса лечения пациентов. Служебные романы начинаются и заканчиваются, а люди продолжают работать вместе. Большая шишка, сказал кто то из толпы, к чему не понятно. Грей еще многому предстоит научиться, прежде чем стать настоящим хирургом.

    Продолжительность: ~00: 43: 00 серия
    Качество видео: HDTV 1080i
    Перевод: Многоголосый закадровый, профессиональный
    Озвучка/Автор перевода: Fox Life
    Видеокодек: AVC
    Битрейт видео: ~7100 кбит/с
    Размер кадра: 1920х1080 (16: 9)
    Аудио #1 Rus: MPEG Audio Layer 2, 2 ch, 192 кбит/с - многоголосый закадровый
    Аудио #2 Eng: MPEG Audio Layer 2, 2 ch, 192 кбит/с - оригинал
    Код:
    Общее
    Уникальный идентификатор : 191010329070149843389971234947464248438 (0x8FB340518CA9EFC1AEAEB2F1CDE13C76)
    Полное имя : D:фильмыgreys_anatomy.s11.rus.hdtv.1080i.foxlifegreys_anatomy.s11e01.rus.hdtv.1080p.foxlife.mkv
    Формат : Matroska
    Версия формата : Version 2
    Размер файла : 2, 20 Гбайт
    Продолжительность : 41 м.
    Общий поток : 7684 Кбит/сек
    Дата кодирования : UTC 2014-11-07 20:20:02
    Программа кодирования : mkvmerge v6.6.0 (\'The Edge Of The In Between\') built on Dec 1 2013 17:55:00
    Библиотека кодирования : libebml v1.3.0 + libmatroska v1.4.1
    Видео
    Идентификатор : 1
    Формат : AVC
    Формат/Информация : Advanced Video Codec
    Профиль формата :Main@L4.0
    Параметр CABAC формата : Да
    Параметр ReFrames формата : 4 кадра
    Параметр GOP формата : M=3, N=12
    Идентификатор кодека : V_MPEG4/ISO/AVC
    Продолжительность : 41 м.
    Битрейт : 7147 Кбит/сек
    Ширина : 1920 пикселей
    Высота : 1080 пикселей
    Соотношение сторон : 16:9
    Режим частоты кадров : Постоянный
    Частота кадров : 25, 000 кадров/сек
    Стандарт вещания : Component
    Цветовое пространство : YUV
    Субдискретизация насыщенности : 4:2:0
    Битовая глубина : 8 бит
    Тип развёртки : MBAFF
    Бит/(Пиксели*Кадры) : 0.138
    Размер потока : 2, 05 Гбайт (93%)
    Default : Да
    Forced : Нет
    Основные цвета : BT.709
    Характеристики трансфера : BT.709
    Коэффициенты матрицы : BT.709
    Аудио #1
    Идентификатор : 2
    Формат : MPEG Audio
    Версия формата : Version 1
    Профиль формата : Layer 2
    Идентификатор кодека : A_MPEG/L2
    Идентификатор кодека/Подсказка : MP2
    Продолжительность : 41 м.
    Вид битрейта : Постоянный
    Битрейт : 192 Кбит/сек
    Каналы : 2 канала
    Частота : 48, 0 КГц
    Метод сжатия : С потерями
    Размер потока : 56, 4 Мбайт (2%)
    Язык : Russian
    Default : Да
    Forced : Нет
    Аудио #2
    Идентификатор : 3
    Формат : MPEG Audio
    Версия формата : Version 1
    Профиль формата : Layer 2
    Идентификатор кодека : A_MPEG/L2
    Идентификатор кодека/Подсказка : MP2
    Продолжительность : 41 м.
    Вид битрейта : Постоянный
    Битрейт : 192 Кбит/сек
    Каналы : 2 канала
    Частота : 48, 0 КГц
    Метод сжатия : С потерями
    Размер потока : 56, 4 Мбайт (2%)
    Язык : English
    Default : Нет
    Forced : Нет


    Скриншоты для ознакомления




    Онлайн видео Анатомия страсти



    Анатомия страсти/Анатомия Грей/Greys Anatomy (2014) HDTV [H.264/1080i-LQ] (сезон 11, серии 1-15 из 24) Fox (обновляемая)
    загрузка...
    Рейтинг →
     (голосов: 1, оценка 3/5, голосовать можно 1 раз )

    Другие торренты по теме:

  • Анатомия страсти / Анатомия Грей / Greys Anatomy (2014) WEB-DL [H.264 / 1080p-LQ] (Сезон 11, 1-2 серии из 24) [EN | Rus Sub] (Обновляемая)
  • Анатомия страсти / Анатомия Грей / Greys Anatomy (2014) HDTVRip (сезон 11, серия 1 из ) [Soul Studio] (Обновляемая)
  • Анатомия страсти / Анатомия Грей / Greys Anatomy (2014) HDTVRip [сезон 11, серии 1 из 24] Fox Life (Обновляемая)
  • Анатомия страсти / Анатомия Грей / Greys Anatomy (2014) WEB-DL [H.264 / 720p] (сезон 11, серии 1-10 из 24) (обновляемая) скачать через торрент бесплатно
  • Анатомия страсти / Анатомия Грей / Greys Anatomy (2015) WEB-DLRip (сезон 12, серии 1-4 из 24) BaibaKo (обновляемая) скачать через торрент бесплатно
  • Анатомия страсти / Анатомия Грей / Greys Anatomy (2015) WEB-DL [H.264 / 720p-LQ] (сезон 12, серии 1-4 из 24) BaibaKo (обновляемая) скачать через торрент бесплатно
  • Анатомия страсти / Анатомия Грей / Greys Anatomy (2016) WEB-DL [H.264 / 720p-LQ] (сезон 13, серии 1-8 из 18) Fox Life (обновляемая)
  • Анатомия страсти / Анатомия Грей / Greys Anatomy (2015) WEB-DL [H.264 / 720p-LQ] (сезон 12, серии 1-24 из 24) Fox Life


    • Комментарии (0):

      Информация

      Информация

        Посетители, находящиеся в группе Гости, не могут оставлять комментарии в данной новости.

        ↓ Меню




        ↓ Опрос

        Вы добавили сайт в закладки?
        Да
        Нет


        Top 10 за месяц (Фильмы)