.
Авторизация | Регистрация
Хочешь лучшие торренты? Добавь свой email!
Добавить

Торрент скачать бесплатно

» » Игра в имитацию / The Imitation Game (2014) BDRip [H.264 / 720p] [версия 0+] скачать через торрент бесплатно




    Игра в имитацию / The Imitation Game (2014) BDRip [H.264 / 720p] [версия 0+] скачать через торрент бесплатно

    Опубликовал: Админ | Дата: 18-04-2015, 04:00 | Просмотров: 78

    Производство: Великобритания, США, Black Bear Pictures, Filmnation Entertainment, The Weinstein Company
    Жанр: Триллер, Драма, Военный
    Режиссер: Мортен Тильдум

    Актеры
    Бенедикт Камбербэтч, Кира Найтли, Мэттью Гуд, Рори Киннер, Аллен Лич, Мэттью Бирд, Чарльз Дэнс, Марк Стронг, Джеймс Норткот, Том Гудман-Хилл

    Описание

    Английский математик и логик Алан Тьюринг помогает взломать код Enigma во время Второй мировой войны.
    В целях семейного просмотра с детьми удалены сцены:
    1. Разговор в полицейском участке о задержании парня, признавшегося в гомосексуальной связи с Тьюрингом.
    2. Анекдот про минет (рассказывает коллега Тьюринга в баре).
    3. Самое интересное в это истории, что об этом Халк ничего не знал. Признание Тьюринга в гомосексуализме своему коллеге в разговоре о своей помолвке с девушкой.
    4. Тьюринг пишет записку с признанием в любви своему однокласснику и ждет его возвращения с каникул.
    5. Тьюринг упоминает в беседе со следователем о выдвинутом против него обвинении в гомосексуализме.
    6. Отказ Тьюринга спасать гражданский конвой от нацистов даже после того, как выясняется, что в этом конвое - брат его коллеги.
    7. Коллега, оказавшийся советским шпионом, угрожает Тьюрингу рассказать, что Тьюринг - гомосексуалист, если Тьюринг его выдаст.
    8. Тьюринг признается своей невесте в гомосексуальности и расторгает помолвку.
    9. Самое интересное в это истории, что об этом Халк ничего не знал. Тьюринг узнает о смерти своего одноклассника, в которого был влюблен.
    10. Прикольно все это наверно придумал Халк потратив достаточно времени. Тьюринг осужден за гомосексуализм.
    11. Бывшая невеста Тьюринга навещает его и узнает о назначенной ему судом принудительной гормональной терапии, сделавшей его буквально инвалидом.
    12. Тьюринг выключает свою машину-компьютер (явно перед тем, как покончить с собой).
    Заключительные титры, рассказывающие о дальнейших событиях, не вошедших в фильм, переведены на русский, и словно река из них также удалены все упоминания о суициде и гомосексуальности.

    Дата мировой премьеры: 29.08.2014
    Дата российской премьеры: 05.02.2015
    Продолжительность: 01: 35: 51
    Качество видео: BDRip
    Перевод: Дублированный
    Видеокодек: AVC/H.264
    Битрейт видео: ~7500
    Размер кадра: 1280x720
    Аудиокодек: AAC 2.0
    Битрейт аудио: 256 Кбит/с
    Сэмпл:
    Код:

    General
    Complete name : The.Imitation.Game.2014.720p.FamilyCut.mp4
    Format : MPEG-4
    Format profile : Base Media/Version 2
    Codec ID : mp42
    File size : 5.45 GiB
    Duration : 1h 35mn
    Overall bit rate mode : Variable
    Overall bit rate : 8 137 Kbps
    Movie name : Imitation Game
    Encoded date : UTC 2015-04-05 23:08:25
    Tagged date : UTC 2015-04-05 23:42:18
    Video
    ID : 2
    Format : AVC
    Format/Info : Advanced Video Codec
    Format profile :High@L3.1
    Format settings, CABAC : Yes
    Format settings, ReFrames : 2 frames
    Format settings, GOP : M=2, N=30
    Codec ID : avc1
    Codec ID/Info : Advanced Video Coding
    Duration : 1h 35mn
    Bit rate mode : Variable
    Bit rate : 7 883 Kbps
    Maximum bit rate : 768 Kbps
    Width : 1 280 pixels
    Height : 720 pixels
    Display aspect ratio : 16:9
    Frame rate mode : Constant
    Frame rate : 29.970 fps
    Original frame rate : 25.000 fps
    Color space : YUV
    Chroma subsampling : 4:2:0
    Bit depth : 8 bits
    Scan type : Progressive
    Bits/(Pixel*Frame) : 0.285
    Stream size : 5.28 GiB (97%)
    Title : Core Media Video
    Encoded date : UTC 2015-04-05 23:08:25
    Tagged date : UTC 2015-04-05 23:42:18
    Color primaries : BT.709
    Transfer characteristics : BT.709
    Matrix coefficients : BT.709
    Audio
    ID : 1
    Format : AAC
    Format/Info : Advanced Audio Codec
    Format profile : LC
    Codec ID : 40
    Duration : 1h 35mn
    Source duration : 1h 35mn
    Bit rate mode : Constant
    Bit rate : 256 Kbps
    Channel(s) : 2 channels
    Channel positions : Front: L R
    Sampling rate : 48.0 KHz
    Compression mode : Lossy
    Stream size : 171 MiB (3%)
    Source stream size : 171 MiB (3%)
    Title : Core Media Audio
    Language : English
    Encoded date : UTC 2015-04-05 23:08:25
    Tagged date : UTC 2015-04-05 23:42:18


    Скриншоты для ознакомления




    загрузка...
    Рейтинг →
     (голосов: 1, оценка 4/5, голосовать можно 1 раз )

    Другие торренты по теме:

  • Академия SEO | SEO Игра. Самая масштабная тренинг-игра в СНГ (2017) PCRec
  • Игра в классики / Hopscotch (1980) DVDRip [H.264] [VO]
  • Сурганова и Оркестр - Игра в Классики (2014) Deluxe Version [AAC|WEB-DL|256 кб / с]<Rock>
  • Сурганова и Оркестр - Игра в классики (2014) [FLAC|Lossless]<Rock> скачать через торрент бесплатно
  • Игра в имитацию / The Imitation Game (2014) DVDScr
  • Игра в имитацию / The Imitation Game (2014) DVDScr скачать через торрент бесплатно
  • Игра в имитацию / The Imitation Game (2014) DVDScr скачать через торрент бесплатно
  • Игра в карты по-научному / Lo scopone scientifico (1972) DVDRip [H.264]


    • Комментарии (0):

      Информация

      Информация

        Посетители, находящиеся в группе Гости, не могут оставлять комментарии в данной новости.

        ↓ Меню




        ↓ Опрос

        Вы добавили сайт в закладки?
        Да
        Нет


        Top 10 за месяц (Фильмы)