.
Авторизация | Регистрация
Хочешь лучшие торренты? Добавь свой email!
Добавить

Торрент скачать бесплатно

» » Менталист / The Mentalist (2014) WEB-DLRip (сезон 7, серии 1-4 из 13) ТВ-3 (обновляемая) скачать через торрент бесплатно




    Менталист / The Mentalist (2014) WEB-DLRip (сезон 7, серии 1-4 из 13) ТВ-3 (обновляемая) скачать через торрент бесплатно

    Опубликовал: Админ | Дата: 16-04-2015, 04:00 | Просмотров: 158

    Производство: США
    Жанр: триллер, драма, криминал, детектив
    Режиссер: Рэндалл Зиск, Крис Лонг, Саймон Бейкер, Роберт Данкан МакНил

    Актеры
    Саймон Бейкер, Робин Танни, Аманда Риджетти, Тим Кенг, Овайн Йомен, Эммануэль Шрики и др.

    Описание

    Патрик Джейн — консультант в ФБР. Бесплатный сыр, сказал кто то из толпы, к чему не понятно. В прошлом он выступал на телеэкранах, называя себя ясновидящим. Сейчас вместе со своей напарницей Терезой Лисбон и командой сотрудников ФБР Джейн ловит преступников, расставляя негодяям логические ловушки, благодаря которым они с легкостью попадают в руки правосудия.
    В 6 сезон любимого сериалае герою удалось изобличить Красного Джона и отомстить за свою семью. Прикольно все это наверно придумал Европарламент потратив достаточно времени. Что же будет дальше? Как изменится жизнь Патрика? Что произойдёт в его взаимоотношениях с Лисбон?

    Продолжительность: ~00: 40: 00 серия
    Качество видео: WEB-DLRip
    Перевод: Дублированный -студия Zone Vision по заказу ТВ-3
    Вид субтитров: отдельным файлом
    Язык субтитров: английский
    Видеокодек: XviD
    Формат: AVI
    Битрейт видео: ~2000 kb/s
    Размер кадра: 720х400 (16: 9)
    Аудио Rus: (AC-3, 48, 0 kHz, 2 ch, 192 kb/s) - дублированный
    Аудио Eng: (AC-3, 48, 0 kHz, 2 ch, 192 kb/s) - оригинал
    Общее
    Полное имя : D: Менталист (сезон любимого сериала 7) The Mentalist (2014) WEB-DLRip - ТВ-3The.Mentalist.s07e01.rus.eng.CasStudio.avi
    Формат : AVI
    Формат/Информация : Audio Video Interleave
    Размер файла : 707 Мбайт
    Продолжительность : 41 м.
    Общий поток : 2398 Кбит/сек
    Программа кодирования : VirtualDubMod 1.5.10.2 (build 2540/release)
    Библиотека кодирования : VirtualDubMod build 2540/release
    Видео
    Идентификатор : 0
    Формат : MPEG-4 Visual
    Профиль формата : Advanced Simple@L5
    Параметр BVOP формата : 1
    Параметр QPel формата : Нет
    Параметр GMC формата : Без точки перехода
    Параметр матрицы формата : Default (MPEG)
    Идентификатор кодека : XVID
    Идентификатор кодека/Подсказка : XviD
    Продолжительность : 41 м.
    Битрейт : 1999 Кбит/сек
    Ширина : 720 пикселей
    Высота : 400 пикселей
    Соотношение сторон : 16: 9
    Частота кадров : 25, 000 кадров/сек
    Цветовое пространство : YUV
    Субдискретизация насыщенности : 4: 2: 0
    Битовая глубина : 8 бит
    Тип развёртки : Прогрессивная
    Метод сжатия : С потерями
    Бит/(Пиксели*Кадры) : 0.278
    Размер потока : 590 Мбайт (83%)
    Библиотека кодирования : XviD 73
    Аудио #1
    Идентификатор : 1
    Формат : AC-3
    Формат/Информация : Audio Coding 3
    Расширение режима : CM (complete main)
    Параметр Endianness формата : Big
    Идентификатор кодека : 2000
    Продолжительность : 41 м.
    Вид битрейта : Постоянный
    Битрейт : 192 Кбит/сек
    Каналы : 2 канала
    Расположение каналов : Front: L R
    Частота : 48, 0 КГц
    Битовая глубина : 16 бит
    Метод сжатия : С потерями
    Размер потока : 56, 6 Мбайт (8%)
    Выравнивание : Разделение по промежуткам
    Продолжительность промежутка : 40 мс. (1, 00 видеокадр)
    Время предзагрузки промежутка : 500 мс.
    Аудио #2
    Идентификатор : 2
    Формат : AC-3
    Формат/Информация : Audio Coding 3
    Расширение режима : CM (complete main)
    Параметр Endianness формата : Big
    Идентификатор кодека : 2000
    Продолжительность : 41 м.
    Вид битрейта : Постоянный
    Битрейт : 192 Кбит/сек
    Каналы : 2 канала
    Расположение каналов : Front: L R
    Частота : 48, 0 КГц
    Битовая глубина : 16 бит
    Метод сжатия : С потерями
    Размер потока : 56, 6 Мбайт (8%)
    Выравнивание : Разделение по промежуткам
    Продолжительность промежутка : 40 мс. (1, 00 видеокадр)
    Время предзагрузки промежутка : 500 мс.


    Скриншоты для ознакомления




    Онлайн видео Менталист



    Менталист/The Mentalist (2014) WEB-DLRip (сезон 7, серии 1-4 из 13) ТВ-3 (обновляемая)
    загрузка...
    Рейтинг →
     (голосов: 1, оценка 5/5, голосовать можно 1 раз )

    Другие торренты по теме:

  • Менталист / The Mentalist (2014) HDTVRip [H.264] (сезон 7, серии 1 из 13) BaibaKo (обновляемая) скачать через торрент бесплатно
  • Менталист / The Mentalist (2014) HDTVRip (Сезон 7, серия 1 из 13) (BaibaKo) (обновляемая) скачать через торрент бесплатно
  • Менталист / The Mentalist (2014) HDTV [H.264 / 720p-LQ] (Сезон 7, серия 1 из 13) (BaibaKo) (обновляемая) скачать через торрент бесплатно
  • Менталист / The Mentalist (2014) WEB-DL [H.264 / 1080p-LQ] (сезон 7, серии 1 из 13) BaibaKo (обновляемая) скачать через торрент бесплатно
  • Менталист / The Mentalist (2013-2014) WEB-DLRip (сезон 6, серии 1-4 из 22) ТВ-3 (обновляемая) скачать через торрент бесплатно
  • Менталист / The Mentalist (2013) WEB-DL [H.264 / 720p-LQ] (Сезон 6, серии 1-4 из 22) (ТВ-3) (обновляемая) скачать через торрент бесплатно
  • Менталист / The Mentalist (2014) WEB-DL [H.264 / 720p-LQ] (Сезон 7, серии 1-4 из 13) (ТВ-3) (обновляемая) скачать через торрент бесплатно
  • Blake Neely - Менталист / The Mentalist, Seasons 1-2 (2010) [AAC|WEB-DL|256 кб / с]<Score> скачать через торрент бесплатно


    • Комментарии (0):

      Информация

      Информация

        Посетители, находящиеся в группе Гости, не могут оставлять комментарии в данной новости.

        ↓ Меню




        ↓ Опрос

        Вы добавили сайт в закладки?
        Да
        Нет


        Top 10 за месяц (Фильмы)