.
Авторизация | Регистрация
Хочешь лучшие торренты? Добавь свой email!
Добавить

Торрент скачать бесплатно

» » Чисто английские убийства / Midsomer Murders (2015) HDTV (Сезон 17, серии 1 из 4) VO reiser (ZytruS) (обновляемая) скачать через торрент бесплатно




    Чисто английские убийства / Midsomer Murders (2015) HDTV (Сезон 17, серии 1 из 4) VO reiser (ZytruS) (обновляемая) скачать через торрент бесплатно

    Опубликовал: Админ | Дата: 16-04-2015, 04:00 | Просмотров: 266

    Производство: Великобритания, Bentley Productions Ltd., Independent Television (ITV)
    Жанр: Детектив, Драма
    Режиссер: Алекс Пиллай

    Актеры
    Нил Даджен, Гвилим Ли, Фиона Долман, Тамзин Маллесон

    Описание

    Чисто английский сериал по чисто английским романам Каролины Грэм. От перемены мест слагаемых сумма английского детектива не меняется, и время не властно над истинными ценностями. Чопорные островитяне по-прежнему совершают самые изощренные преступления, за ними с самым обстоятельным и почтительным видом следуют элегантные сыщики, а фоном для этих сдержанных страстей остаются зеленые лужайки и тенистые аллеи, сумрачные кабинеты и холодные спальни. Почти все действие происходит в деревнях небольшого, образцово безмятежного графства Мидсомер. Иной раз на этом пасторальном фоне происходит такое, чего и в столицах не видывали. А службу, которая опасна и трудна, деревенские полицейские не выбирают.

    Дата мировой премьеры: 28.01.2015
    Релиз от: ZytruS
    Продолжительность: ~01: 30: 00 серия
    Качество видео: HDTV
    Перевод: Одноголосый закадровый, любительский
    Озвучка/Автор перевода: reiser/wdata
    Вид субтитров: Отсутствуют
    Видеокодек: MPEG4 Video (H264)
    Битрейт видео: ~2777 Кбит/с
    Размер кадра: 1280x720
    Аудиокодек: AC3 2.0
    Битрейт аудио: 192 Кбит/с
    Сэмпл: Скачать
    Код:

    General
    Unique ID : 253446538453166299643669263537105197692 (0xBEAC071BFD1E953BAFA329600152DA7C)
    Complete name : Midsomer.Murders.S17E01.720p.rus.reiser.mkv
    Format : Matroska
    Format version : Version 2
    File size : 1.89 GiB
    Duration : 1h 29mn
    Overall bit rate : 3 030 Kbps
    Encoded date : UTC 2015-04-12 20:39:47
    Writing application : mkvmerge v2.9.8 (\'C\'est le bon\') built on Nov 20 2009 13:01:15
    Writing library : libebml v0.7.9 + libmatroska v0.8.1
    Video #1
    ID : 1
    Format : AVC
    Format/Info : Advanced Video Codec
    Format profile :High@L4.1
    Format settings, CABAC : Yes
    Format settings, ReFrames : 5 frames
    Codec ID : V_MPEG4/ISO/AVC
    Duration : 1h 29mn
    Bit rate : 2 777 Kbps
    Width : 1 280 pixels
    Height : 720 pixels
    Display aspect ratio : 16:9
    Frame rate : 25.000 fps
    Color space : YUV
    Chroma subsampling : 4:2:0
    Bit depth : 8 bits
    Scan type : Progressive
    Bits/(Pixel*Frame) : 0.121
    Stream size : 1.73 GiB (92%)
    Writing library : x264 core 144 r2525 40bb568
    Encoding settings : cabac=1/ref=5/deblock=1:0:0/analyse=0x3:0x113/me=umh/subme=8/psy=1/psy_rd=1.00:0.00/mixed_ref=1/me_range=16/chroma_me=1/trellis=1/8x8dct=1/cqm=0/deadzone=21, 11/fast_pskip=1/chroma_qp_offset=-2/threads=18/lookahead_threads=3/sliced_threads=0/nr=0/decimate=1/interlaced=0/bluray_compat=0/constrained_intra=0/bframes=3/b_pyramid=2/b_adapt=2/b_bias=0/direct=3/weightb=1/open_gop=0/weightp=2/keyint=250/keyint_min=25/scenecut=40/intra_refresh=0/rc_lookahead=50/rc=crf/mbtree=1/crf=18.0/qcomp=0.60/qpmin=0/qpmax=69/qpstep=4/ip_ratio=1.40/aq=1:1.00
    Default : No
    Forced : No
    Audio #2
    ID : 2
    Format : AC-3
    Format/Info : Audio Coding 3
    Mode extension : CM (complete main)
    Codec ID : A_AC3
    Duration : 1h 29mn
    Bit rate mode : Constant
    Bit rate : 192 Kbps
    Channel(s) : 2 channels
    Channel positions : Front: L R
    Sampling rate : 48.0 KHz
    Bit depth : 16 bits
    Compression mode : Lossy
    Stream size : 122 MiB (6%)
    Default : Yes
    Forced : No


    Скриншоты для ознакомления




    Онлайн видео Чисто английские убийства



    Чисто английские убийства/Midsomer Murders (2015) HDTV (Сезон 17, серии 1 из 4) VO reiser (ZytruS) (обновляемая)
    загрузка...
    Рейтинг →
     (голосов: 1, оценка 5/5, голосовать можно 1 раз )

    Другие торренты по теме:

  • Чисто английские убийства / Midsomer Murders (2016) HDTVRip (сезон 18, серии 1 из 6) (reiser) (обновляемая)
  • Чисто английские убийства / Убийства в Мидсомере / Midsomer Murders (2017) HDTVRip (сезон 19, серии 1-4 из 6) DexterTV


    • Комментарии (0):

      Информация

      Информация

        Посетители, находящиеся в группе Гости, не могут оставлять комментарии в данной новости.

        ↓ Меню




        ↓ Опрос

        Вы добавили сайт в закладки?
        Да
        Нет


        Top 10 за месяц (Фильмы)