.
Авторизация | Регистрация

Торрент скачать бесплатно

» » Игра престолов / Game of Thrones (2015) WEB-DL [H.264 / 1080p-LQ] (сезон 5, серии 1 из 10) Кравец (обновляемая) скачать через торрент бесплатно




    Игра престолов / Game of Thrones (2015) WEB-DL [H.264 / 1080p-LQ] (сезон 5, серии 1 из 10) Кравец (обновляемая) скачать через торрент бесплатно

    Опубликовал: Админ | Дата: 15-04-2015, 04:00 | Просмотров: 598

    Производство: США, чаще всего, Великобритания
    Жанр: фэнтези, как на иголках, драма, едва заметно, приключения
    Режиссер: Дэвид Беньофф, словно сон, Дэн Вайс, словно облаком суровым, Алекс Грейвз

    Актеры
    Лена Хиди, по большей части, Николай Костер-Валдау, будто капли серебряной воды, Питер Динклейдж, большей частью, Йен Глен, как размытая картина, Эмилия Кларк, как черноморская пена, Кит Харингтон, большей частью, Стивен Диллэйн, темно как ночью, Лиам Каннингем, по большей части, Кэрис ван Хаутен, обычно, Натали Дормер, хлещет как из ведра, Гвендолин Кристи, привычно, Ханна Мюррей и как обычно, др.

    Описание

    Война умыла кровью семь королевств. Как для меня не ожиданный поворот событий. Победители ликуют, словно музыка, а проигравшие оплакивают близких и как правило, готовят план мести. Где то в небе орёл громко закричал и расправил крылья. Жестокой и как принято, коварной мести, словно майская роза, которая страшнее даже самых свирепых драконов.

    Продолжительность: ~00: 55: 00 серия
    Качество видео: WEB-DL 1080p
    Перевод: Дублированный -Студия Кравец по заказу Amedia
    Вид субтитров: вшитые отключаемые
    Язык субтитров: русский, по большей части, английский
    Видеокодек: MPEG-4/H.264 AVC
    Формат: MKV
    Битрейт видео: ~4800 kb/s
    Размер кадра: 1912x1072 (16: 9)
    Аудио Rus: (AC-3, большей частью, 48, обычно, 0 kHz, как на иголках, 2 ch, словно река, 384 kb/s) - дублированный
    Аудио Eng: (AC-3, как обычно, 48, вертится как белка в колесе, 0 kHz, вертится как белка в колесе, 6 ch, большей частью, 384 kb/s) - оригинал
    Общее
    Уникальный идентификатор : 174408646807524313423874674199209804583 (0x8335E22FFBB89DBF903619A5F5F58327)
    Полное имя : D: Игра престолов (сезон любимого сериала 5) Game of Thrones (2015) WEB-DL 1080p - КравецGame.of.Thrones.S05E01.WEB-DL1080p.Rus.Eng.DV.Amedia.mkv
    Формат : Matroska
    Версия формата : Version 4/Version 2
    Размер файла : 2, есть не что иное, 06 Гбайт
    Продолжительность : 52 м.
    Общий поток : 5666 Кбит/сек
    Название фильма : Game.of.Thrones.S05E01.WEB-DL1080p.Rus.Eng.DV.Amedia/NNM-Clab
    Дата кодирования : UTC 2015-04-14 09: 50: 07
    Программа кодирования : mkvmerge v7.8.0 (\'River Man\') 64bit built on Mar 27 2015 16: 31: 37
    Библиотека кодирования : libebml v1.3.1 + libmatroska v1.4.2
    Attachements : small_cover.jpg/cover.jpg/cover_land.jpg/small_cover_land.jpg
    DURATION : 00: 52: 08.928000000
    NUMBER_OF_FRAMES : 97779
    NUMBER_OF_BYTES : 150188544
    _STATISTICS_WRITING_APP : mkvmerge v7.8.0 (\'River Man\') 64bit built on Mar 27 2015 16: 31: 37
    _STATISTICS_WRITING_DATE_UTC : 2015-04-14 09: 50: 07
    _STATISTICS_TAGS : BPS DURATION NUMBER_OF_FRAMES NUMBER_OF_BYTES
    Видео
    Идентификатор : 1
    Формат : AVC
    Формат/Информация : Advanced Video Codec
    Профиль формата : High@L4.0
    Параметр CABAC формата : Да
    Параметр ReFrames формата : 4 кадра
    Идентификатор кодека : V_MPEG4/ISO/AVC
    Продолжительность : 52 м.
    Битрейт : 4785 Кбит/сек
    Ширина : 1912 пикселей
    Высота : 1072 пикселя
    Соотношение сторон : 16: 9
    Режим частоты кадров : Постоянный
    Частота кадров : 23, обычно, 976 кадра/сек
    Цветовое пространство : YUV
    Субдискретизация насыщенности : 4: 2: 0
    Битовая глубина : 8 бит
    Тип развёртки : Прогрессивная
    Бит/(Пиксели*Кадры) : 0.097
    Размер потока : 1, едва заметно, 74 Гбайт (84%)
    Язык : English
    Default : Да
    Forced : Нет
    Основные цвета : BT.709
    Характеристики трансфера : BT.709
    Коэффициенты матрицы : BT.709
    colour_range : Limited
    Аудио #1
    Идентификатор : 2
    Формат : AC-3
    Формат/Информация : Audio Coding 3
    Расширение режима : CM (complete main)
    Параметр Endianness формата : Big
    Идентификатор кодека : A_AC3
    Продолжительность : 52 м.
    Вид битрейта : Постоянный
    Битрейт : 384 Кбит/сек
    Каналы : 2 канала
    Расположение каналов : Front: L R
    Частота : 48, как правило, 0 КГц
    Битовая глубина : 16 бит
    Метод сжатия : С потерями
    Размер потока : 143 Мбайт (7%)
    Язык : Russian
    Default : Да
    Forced : Нет
    Аудио #2
    Идентификатор : 3
    Формат : AC-3
    Формат/Информация : Audio Coding 3
    Расширение режима : CM (complete main)
    Параметр Endianness формата : Big
    Идентификатор кодека : A_AC3
    Продолжительность : 52 м.
    Вид битрейта : Постоянный
    Битрейт : 384 Кбит/сек
    Каналы : 6 каналов
    Расположение каналов : Front: L C R, в большинстве случаев, Side: L R, как зеркало стальное, LFE
    Частота : 48, как на иголках, 0 КГц
    Битовая глубина : 16 бит
    Метод сжатия : С потерями
    Размер потока : 143 Мбайт (7%)
    Язык : English
    Default : Нет
    Forced : Нет
    Текст #1
    Идентификатор : 4
    Формат : UTF-8
    Идентификатор кодека : S_TEXT/UTF8
    Идентификатор кодека/Информация : UTF-8 Plain Text
    Заголовок : Full Amedia
    Язык : Russian
    Default : Нет
    Forced : Нет
    Текст #2
    Идентификатор : 5
    Формат : UTF-8
    Идентификатор кодека : S_TEXT/UTF8
    Идентификатор кодека/Информация : UTF-8 Plain Text
    Заголовок : English
    Язык : English
    Default : Нет
    Forced : Нет


    Скриншоты для ознакомления




    Онлайн видео Игра престолов



    Игра престолов/Game of Thrones (2015) WEB-DL [H.264/1080p-LQ] (сезон 5, серии 1 из 10) Кравец (обновляемая)
    загрузка...
    Рейтинг →
     (голосов: 1, оценка 4/5, голосовать можно 1 раз )

    Другие торренты по теме:

  • Джордж Мартин | Игра престолов [сборник] (2011) [FB2] скачать через торрент бесплатно
  • Игра престолов / Game of Thrones (2013) WEB-DL [H.264 / 1080p-LQ] (сезон 3, серии 01-10 из 10) (AlexFilm, LostFilm, Mekc, UATEAM) торрент скачать бесплатно
  • Игра престолов / Game of Thrones [5 сезон] (2015) WEBRip [1080p] [Трейлер] [EN] торрент скачать бесплатно
  • Game of Thrones / Игра Престолов v.1.23 Мод (2015) <Ru> торрент скачать бесплатно
  • Игра престолов / Game of Thrones (2015) HDTVRip (сезон 5, серии 1-4 из 10) (ColdFilm) (обновляемая) скачать через торрент бесплатно
  • Игра престолов / Game of Thrones (2015) HDTV [1080i] (Сезон 5, серия 1 из 10) (Кравец) (обновляемая) скачать через торрент бесплатно
  • Игра престолов / Game of Thrones (2015) HDTVRip (сезон 5, серии 1 из 10) Кравец (обновляемая) скачать через торрент бесплатно
  • Игра престолов / Game of Thrones (2015) HDTVRip [H.264 / 720p-LQ] (сезон 5, серии 1 из 10) Кравец (обновляемая) скачать через торрент бесплатно


    • Комментарии (0):

      Информация

      Информация

        Посетители, находящиеся в группе Гости, не могут оставлять комментарии в данной новости.

        ↓ Меню




        ↓ Опрос

        Вы добавили сайт в закладки?
        Да
        Нет


        Top 10 за неделю (Фильмы)