.
Авторизация | Регистрация
Хочешь лучшие торренты? Добавь свой email!
Добавить

Торрент скачать бесплатно

» » Игра престолов / Game of Thrones (2015) HDTVRip [H.264] (сезон 5, серия 01 из 10) (FOX, Kravec, Патлаті Продакшнс) (обновляемая) скачать через торрент бесплатно




    Игра престолов / Game of Thrones (2015) HDTVRip [H.264] (сезон 5, серия 01 из 10) (FOX, Kravec, Патлаті Продакшнс) (обновляемая) скачать через торрент бесплатно

    Опубликовал: Админ | Дата: 15-04-2015, 04:00 | Просмотров: 199

    Производство: США, Великобритания, Bighead Littlehead, Created By, Generator Entertainment, Home Box Office (HBO), Television 360
    Жанр: фэнтези, драма, приключения
    Режиссер: Алан Тейлор, Алекс Грейвз, Даниэль Минахан

    Актеры
    Лина Хиди, Питер Динклэйдж, Мишель Фэйрли, Эмилия Кларк, Кит Харингтон, Николай Костер-Валдау, Иэн Глен, Эйден Гиллен, Элфи Оуэн-Аллен, Мэйси Уильямс, Софи Тёрнер, Джек Глисон, Айзек Хемпстед-Райт, Ричард Мэдден, Джером Флинн, Конлет Хилл, Дональд Самптер, Рори МакКанн, Амрита Ачария, Чарльз Дэнс, Джон Брэдли, Кристиан Нэйрн, Сибель Кекилли, Джеймс Космо, Стивен Диллэйн, Гетин Энтони, Гвендолин Кристи, Натали Дормер, Уна Чаплин

    Описание

    Война умыла кровью семь королевств. Победители ликуют, а проигравшие оплакивают близких и готовят план мести. Богатый выбор, сказал кто то из толпы, к чему не понятно. Жестокой и коварной мести, которая страшнее даже самых свирепых драконов.

    Продолжительность: ~ 00: 55: 00 серия
    Качество видео: HDTVRip
    Перевод: Многоголосый закадровый, профессиональный(FOX, Патлаті Продакшнс)
    Дублированный(Kravec)
    Вид субтитров: вшитые отключаемые
    Язык субтитров: русский (Forced, Amedia, 7kingdoms), английский
    Видеокодек: AVC
    Формат: MKV
    Битрейт видео: ~2900 Kbps
    Размер кадра: 1024x576 (16: 9)
    Audio #1Rus: AC-3, 48.0 KHz, 2 ch, 192 Kbps, CBR - многоголосый закадровый -FOX
    Audio #2Rus: AC-3, 48.0 KHz, 2 ch, 192 Kbps, CBR - дублированный -Kravec по заказу Amedia
    Audio #3Ukr: AC-3, 48.0 KHz, 2 ch, 192 Kbps, CBR - многоголосый закадровый -Патлаті Продакшнс по заказу UAteam
    Audio #4Eng: AC-3, 48.0 KHz, 2 ch, 384 Kbps, CBR - оригинал
    General
    Complete name : F: СериалраздачаGame.of.Thrones.S05.HDTVRip.AVC.2xRus.Ukr.Eng.ИВGame.of.Thrones.S05E01.HDTVRip.AVC.2xRus.Ukr.Eng.ИВ.mkv
    Format : Matroska
    File size : 1.48 GiB
    Duration : 55mn 0s
    Overall bit rate : 3 858 Kbps
    Movie name : Gane of Thrones.S05E01 - The Wars to Come (2015)
    Encoded date : UTC 2015-04-14 08: 58: 18
    Writing application : mkvmerge v5.8.0 (\'No Sleep/Pillow\') built on Sep 2 2012 15: 37: 04
    Writing library : libebml v1.2.3 + libmatroska v1.3.0
    Cover : Yes
    Video
    ID : 1
    Format : AVC
    Format/Info : Advanced Video Codec
    Format profile : High@L3.1
    Format settings, CABAC : Yes
    Format settings, ReFrames : 2 frames
    Muxing mode : Container profile=Unknown@3.1
    Codec ID : V_MPEG4/ISO/AVC
    Duration : 55mn 0s
    Bit rate : 2 900 Kbps
    Width : 1 024 pixels
    Height : 576 pixels
    Display aspect ratio : 16: 9
    Frame rate mode : Variable
    Frame rate : 23.976 fps
    Color space : YUV
    Chroma subsampling : 4: 2: 0
    Bit depth : 8 bits
    Scan type : Progressive
    Bits/(Pixel*Frame) : 0.205
    Stream size : 1.08 GiB (73%)
    Title : Gane of Thrones.S05E01 - The Wars to Come (2015) - ИВ
    Writing library : x264 core 129
    Encoding settings : cabac=1/ref=2/deblock=1: 0: 0/analyse=0x3: 0x113/me=hex/subme=6/psy=1/psy_rd=1.00: 0.00/mixed_ref=1/me_range=16/chroma_me=1/trellis=0/8x8dct=1/cqm=0/deadzone=21, 11/fast_pskip=1/chroma_qp_offset=-2/threads=2/lookahead_threads=1/sliced_threads=0/nr=0/decimate=1/interlaced=0/bluray_compat=0/constrained_intra=0/bframes=0/weightp=2/keyint=250/keyint_min=25/scenecut=40/intra_refresh=0/rc_lookahead=40/rc=2pass/mbtree=1/bitrate=2900/ratetol=1.0/qcomp=0.60/qpmin=10/qpmax=51/qpstep=4/cplxblur=20.0/qblur=0.5/ip_ratio=1.41/aq=1: 1.00
    Language : English
    Audio #1
    ID : 2
    Format : AC-3
    Format/Info : Audio Coding 3
    Mode extension : CM (complete main)
    Muxing mode : Header stripping
    Codec ID : A_AC3
    Duration : 55mn 0s
    Bit rate mode : Constant
    Bit rate : 192 Kbps
    Channel(s) : 2 channels
    Channel positions : Front: L R
    Sampling rate : 48.0 KHz
    Bit depth : 16 bits
    Stream size : 75.5 MiB (5%)
    Title : Fox (многоголосый, закадровый), ac3 2.0 @ 192 kbps
    Language : Russian
    Audio #2
    ID : 3
    Format : AC-3
    Format/Info : Audio Coding 3
    Mode extension : CM (complete main)
    Muxing mode : Header stripping
    Codec ID : A_AC3
    Duration : 55mn 0s
    Bit rate mode : Constant
    Bit rate : 192 Kbps
    Channel(s) : 2 channels
    Channel positions : Front: L R
    Sampling rate : 48.0 KHz
    Bit depth : 16 bits
    Stream size : 75.5 MiB (5%)
    Title : Кравец (Амедия) (дублированный), ac3 2.0 @ 192 kbps
    Language : Russian
    Audio #3
    ID : 4
    Format : AC-3
    Format/Info : Audio Coding 3
    Mode extension : CM (complete main)
    Muxing mode : Header stripping
    Codec ID : A_AC3
    Duration : 55mn 0s
    Bit rate mode : Constant
    Bit rate : 192 Kbps
    Channel(s) : 2 channels
    Channel positions : Front: L R
    Sampling rate : 48.0 KHz
    Bit depth : 16 bits
    Stream size : 75.5 MiB (5%)
    Title : Патлаті Продакшнс, (многоголосый, закадровый), ac3 2.0 @ 192 kbps
    Language : Ukrainian
    Audio #4
    ID : 5
    Format : AC-3
    Format/Info : Audio Coding 3
    Mode extension : CM (complete main)
    Muxing mode : Header stripping
    Codec ID : A_AC3
    Duration : 55mn 0s
    Bit rate mode : Constant
    Bit rate : 384 Kbps
    Channel(s) : 2 channels
    Channel positions : Front: L R
    Sampling rate : 48.0 KHz
    Bit depth : 16 bits
    Stream size : 151 MiB (10%)
    Title : Оригинал, ac3 2.0 @ 384 kbps
    Language : English
    Text #1
    ID : 6
    Format : UTF-8
    Codec ID : S_TEXT/UTF8
    Codec ID/Info : UTF-8 Plain Text
    Title : Forced
    Language : Russian
    Text #2
    ID : 7
    Format : UTF-8
    Codec ID : S_TEXT/UTF8
    Codec ID/Info : UTF-8 Plain Text
    Title : Amedia
    Language : Russian
    Text #3
    ID : 8
    Format : UTF-8
    Codec ID : S_TEXT/UTF8
    Codec ID/Info : UTF-8 Plain Text
    Title : 7kinkdoms
    Language : Russian
    Text #4
    ID : 9
    Format : UTF-8
    Codec ID : S_TEXT/UTF8
    Codec ID/Info : UTF-8 Plain Text
    Language : English


    Скриншоты для ознакомления




    Онлайн видео Игра престолов



    Игра престолов/Game of Thrones (2015) HDTVRip [H.264] (сезон 5, серия 01 из 10) (FOX, Kravec, Патлаті Продакшнс) (обновляемая)
    загрузка...
    Рейтинг →
     (голосов: 1, оценка 3/5, голосовать можно 1 раз )

    Другие торренты по теме:

  • Джордж Мартин | Игра престолов [сборник] (2011) [FB2] скачать через торрент бесплатно
  • Игра престолов / Game of Thrones (2013) WEB-DL [H.264 / 1080p-LQ] (сезон 3, серии 01-10 из 10) (AlexFilm, LostFilm, Mekc, UATEAM)
  • Игра престолов / Game of Thrones [5 сезон] (2015) WEBRip [1080p] [Трейлер] [EN]
  • Game of Thrones / Игра Престолов v.1.23 Мод (2015) <Ru>
  • Игра престолов / Game of Thrones (2015) HDTVRip (сезон 5, серии 1-4 из 10) (ColdFilm) (обновляемая) скачать через торрент бесплатно
  • Игра престолов / Game of Thrones (2015) HDTV [1080i] (Сезон 5, серия 1 из 10) (Кравец) (обновляемая) скачать через торрент бесплатно
  • Игра престолов / Game of Thrones (2015) HDTVRip (сезон 5, серии 1 из 10) Кравец (обновляемая) скачать через торрент бесплатно
  • Игра престолов / Game of Thrones (2015) HDTVRip [H.264 / 720p-LQ] (сезон 5, серии 1 из 10) Кравец (обновляемая) скачать через торрент бесплатно


    • Комментарии (0):

      Информация

      Информация

        Посетители, находящиеся в группе Гости, не могут оставлять комментарии в данной новости.

        ↓ Меню




        ↓ Опрос

        Вы добавили сайт в закладки?
        Да
        Нет


        Top 10 за месяц (Фильмы)