.
Авторизация | Регистрация
Хочешь лучшие торренты? Добавь свой email!
Добавить

Торрент скачать бесплатно

» » Цветок папоротника (2015) SATRip [H.264] (серии 1 из 16) (обновляемая) скачать через торрент бесплатно




    Цветок папоротника (2015) SATRip [H.264] (серии 1 из 16) (обновляемая) скачать через торрент бесплатно

    Опубликовал: Админ | Дата: 15-04-2015, 04:00 | Просмотров: 138

    Производство: Россия, Кинокомпания Русское
    Жанр: мелодрама
    Режиссер: Сергей Лялин

    Актеры
    Сергей Мухин, Евгения Нохрина, Анастасия Стежко, Сергей Жарков, Ада Роговцева, Екатерина Васильева, Евгений Сидихин, Елена Степанова (II), Александр Цуркан, Сергей Шеховцов, Вера Смолина, Александр Михайлов, Алёна Яковлева, Наталья Чернявская, Александр Яценко, Константин Демидов (II), Евгений Москалёв, Андрей Заводюк, Евгения Лютая, Денис Урюпин, Иван Латушко, Анжелика Вольская

    Описание

    Маленькая Глущевка – необычная деревенька, здесь есть аномальная зона, где ломаются компасы, вода течет в гору и, по легенде, зарыт бесценный клад. В поисках разгадки здешних секретов в Глущевку приезжает авантюрный геолог Тим.
    Однажды ночью в таинственный лес приходят две подружки – Тоня, невеста первого парня на деревне Петра, и капризная студентка из города Ира. У обеих не ладится личная жизнь, и девушки решают отыскать волшебный папоротник, цветущий лишь одну ночь. К своему ужасу, вместо чудо-цветка они находят Тима, раненого и почти утонувшего в проклятом Ведьмином болоте…

    Дата мировой премьеры: 13 апреля 2015 (ТРК Украина)
    Продолжительность: ~ 00: 44: 00
    Качество видео: SATRip
    Вид субтитров: вшитые не отключаемые
    Язык субтитров: украинский
    Видеокодек: AVC/H.264
    Битрейт видео: ~1650 Кбит/сек
    Размер кадра: 720х400
    Аудиокодек: AC3
    Битрейт аудио: 2 ch, 192 Кбит/c
    Сэмпл: Скачать
    Код:

    Общее
    Уникальный идентификатор : 174810727657522172279931489965300424424 (0x8383524DCBCDAFE7B15BF786A10E9EE8)
    Полное имя : F:Цветок папоротника1 серия.mkv
    Формат : Matroska
    Версия формата : Version 2
    Размер файла : 580 Мбайт
    Продолжительность : 44 м.
    Общий поток : 1843 Кбит/сек
    Дата кодирования : UTC 2015-04-13 22:56:53
    Программа кодирования : mkvmerge v7.8.0 (\'River Man\') 32bit built on Apr 3 2015 12:11:22
    Библиотека кодирования : libebml v1.3.1 + libmatroska v1.4.2
    Видео
    Идентификатор : 1
    Формат : AVC
    Формат/Информация : Advanced Video Codec
    Профиль формата :High@L3.1
    Параметр CABAC формата : Да
    Параметр ReFrames формата : 9 кадров
    Идентификатор кодека : V_MPEG4/ISO/AVC
    Продолжительность : 44 м.
    Битрейт : 1650 Кбит/сек
    Ширина : 720 пикселей
    Высота : 400 пикселей
    Соотношение сторон : 16:9
    Режим частоты кадров : Постоянный
    Частота кадров : 25, 000 кадров/сек
    Цветовое пространство : YUV
    Субдискретизация насыщенности : 4:2:0
    Битовая глубина : 8 бит
    Тип развёртки : Прогрессивная
    Бит/(Пиксели*Кадры) : 0.229
    Размер потока : 508 Мбайт (88%)
    Библиотека кодирования : x264 core 146 r2538 121396c
    Настройки программы : cabac=1/ref=9/deblock=1:-3:-3/analyse=0x3:0x133/me=umh/subme=9/psy=1/psy_rd=1.00:0.00/mixed_ref=1/me_range=16/chroma_me=0/trellis=2/8x8dct=1/cqm=0/deadzone=21, 11/fast_pskip=0/chroma_qp_offset=-2/threads=4/lookahead_threads=4/sliced_threads=0/nr=0/decimate=0/interlaced=0/bluray_compat=0/constrained_intra=0/bframes=9/b_pyramid=2/b_adapt=2/b_bias=0/direct=3/weightb=1/open_gop=0/weightp=2/keyint=250/keyint_min=25/scenecut=40/intra_refresh=0/rc_lookahead=30/rc=2pass/mbtree=1/bitrate=1650/ratetol=1.0/qcomp=0.60/qpmin=0/qpmax=69/qpstep=4/cplxblur=20.0/qblur=0.5/ip_ratio=1.40/aq=1:1.00
    Default : Да
    Forced : Нет
    Основные цвета : BT.709
    Характеристики трансфера : BT.709
    Коэффициенты матрицы : BT.709
    colour_range : Limited
    Аудио
    Идентификатор : 2
    Формат : AC-3
    Формат/Информация : Audio Coding 3
    Расширение режима : CM (complete main)
    Параметр Endianness формата : Big
    Идентификатор кодека : A_AC3
    Продолжительность : 44 м.
    Вид битрейта : Постоянный
    Битрейт : 192 Кбит/сек
    Каналы : 2 канала
    Расположение каналов : Front: L R
    Частота : 48, 0 КГц
    Битовая глубина : 16 бит
    Метод сжатия : С потерями
    Размер потока : 60, 5 Мбайт (10%)
    Default : Да
    Forced : Нет


    Скриншоты для ознакомления




    Онлайн видео Реальные пацаны (2015) SATRip (сезон любимого сериала 8, серии 1



    Цветок папоротника (2015) SATRip [H.264] (серии 1 из 16) (обновляемая)
    загрузка...
    Рейтинг →
     (голосов: 1, оценка 5/5, голосовать можно 1 раз )

    Другие торренты по теме:

  • Secrets of the Dark: The Flower of Shadow / Тайны Тьмы: Цветок Теней (2014) [Ru] Unofficial [Collectors Edition / Коллекционное издание] скачать через торрент бесплатно
  • Павел Бажов | Каменный цветок, Малахитовая шкатулка, Медной горы Хозяйка и другие сказы (2003) [MP3] скачать через торрент бесплатно
  • Андрей Золот | Золотой цветок (2015) [FB2] скачать через торрент бесплатно
  • Галина Нигматулина | Цветок змеиного дома (2016) [FB2] скачать через торрент бесплатно
  • Анна Данилова | Цветок предательства (2015) [FB2] скачать через торрент бесплатно
  • Цветок пустыни / Desert Flower (2009) HDRip
  • Glass no Hana to Kowasu Sekai | Garakowa: Restore the World | Vitreous Flower & Destroy the World | Хрустальный цветок в увядшем мире [2016, MV] BDrip 1080p Hi10p raw
  • Ольга Громыко | Цветок камалейника (2016) [MP3]


    • Комментарии (0):

      Информация

      Информация

        Посетители, находящиеся в группе Гости, не могут оставлять комментарии в данной новости.

        ↓ Меню




        ↓ Опрос

        Вы добавили сайт в закладки?
        Да
        Нет


        Top 10 за месяц (Фильмы)