.
Авторизация | Регистрация
Хочешь лучшие торренты? Добавь свой email!
Добавить

Торрент скачать бесплатно

» » Игра престолов / Game of Thrones (2015) HDTVRip (сезон 5, серии 1 из 10) AlexFilm (обновляемая) скачать через торрент бесплатно




    Игра престолов / Game of Thrones (2015) HDTVRip (сезон 5, серии 1 из 10) AlexFilm (обновляемая) скачать через торрент бесплатно

    Опубликовал: Админ | Дата: 15-04-2015, 04:00 | Просмотров: 435

    Производство: США, Великобритания
    Жанр: фэнтези, драма, приключения
    Режиссер: Д.Б.Вейсс, Алекс Грейвз, Мишель Максвелл МакЛарен, Алик Сахаров, Нил Маршал

    Актеры
    Питер Динклэйдж (Тирион Ланнистер), Лена Хиди (Серсея Ланнистер), Николай Костер-Вальдау (Джейме Ланнистер), Эмилия Кларк (Дейенерис Таргариен), Эйдан Гиллен (Петир Бейлиш), Иэн Глен (сир Джорах Мормонт), Кит Харингтон (Джон Сноу), Лиам Каннингэм (сир Давос Сиворт), Айзек Хэмпстед-Райт (Бран Старк), Софи Тернер (Санса Старк), Мэйси Уильямс (Арья Старк), Элфи Аллен (Теон Грейджой), Джон Брэдли-Уэст (Сэмвел Тарли), Джек Глисон (король Джоффри Баратеон), Рори МакКанн (Сандор Пёс Клиган), Стивен Диллэйн (король Станнис Баратеон), Кэрис Ван Хаутен (Мелисандра), Джером Флинн (Бронн), Конлет Хилл (лорд Варис), Сибель Кекилли (Шая) и др.

    Описание

    Война умыла кровью семь королевств. Победители ликуют, а проигравшие оплакивают близких и готовят план мести. Жестокой и коварной мести, которая страшнее даже самых свирепых драконов.

    Продолжительность: ~00: 55: 00 серия
    Качество видео: HDTVRip
    Перевод: Многоголосый закадровый, профессиональный -AlexFilm
    Автор перевода: Александр Митраков (Opel), Илья Белкин (Volverine73)
    Westeros.ru (форум Ночного Дозора у Стены)

    Озвучка: Евгения Тихонова, Анна Тух, Пётр Иващенко (Гланц), Александр Воронов, Александр Дасевич, Константин Погодаев, Михаил Суслов
    Монтаж и сведение звука: Михаил Шорыгин
    Видеокодек: XviD
    Формат: AVI
    Битрейт видео: ~1400 kb/s
    Размер кадра: 720х400 (16: 9)
    Аудио Rus: (MPEG Layer 3, 48, 0 kHz, 2 ch, 128 kb/s) - многоголосый закадровый
    Аудио Eng: (MPEG Layer 3, 48, 0 kHz, 2 ch, 128 kb/s) - оригинал
    Внимание! В сериале присутствуют сцены с обнаженной натурой.
    Общее
    Полное имя : D: Игра престолов (сезон любимого сериала 5) Game of Thrones (2015) HDTVRip - AlexFilmGame.of.Thrones.s04e05.HDTVRip.Rus.Eng.AlexFilm.avi
    Формат : AVI
    Формат/Информация : Audio Video Interleave
    Размер файла : 630 Мбайт
    Продолжительность : 52 м.
    Общий поток : 1683 Кбит/сек
    Название фильма : Game of Thrones 5x01 @ AlexFilm
    Программа кодирования : VirtualDubMod 1.5.10.2 (build 2540/release)
    Библиотека кодирования : VirtualDubMod build 2540/release
    Видео
    Идентификатор : 0
    Формат : MPEG-4 Visual
    Профиль формата : Advanced Simple@L5
    Параметр BVOP формата : Нет
    Параметр QPel формата : Нет
    Параметр GMC формата : Без точки перехода
    Параметр матрицы формата : Default (H.263)
    Идентификатор кодека : XVID
    Идентификатор кодека/Подсказка : XviD
    Продолжительность : 52 м.
    Битрейт : 1413 Кбит/сек
    Ширина : 720 пикселей
    Высота : 400 пикселей
    Соотношение сторон : 16: 9
    Частота кадров : 23, 976 кадра/сек
    Цветовое пространство : YUV
    Субдискретизация насыщенности : 4: 2: 0
    Битовая глубина : 8 бит
    Тип развёртки : Прогрессивная
    Метод сжатия : С потерями
    Бит/(Пиксели*Кадры) : 0.205
    Размер потока : 529 Мбайт (84%)
    Библиотека кодирования : XviD 73
    Аудио #1
    Идентификатор : 1
    Формат : MPEG Audio
    Версия формата : Version 1
    Профиль формата : Layer 3
    Режим : Joint stereo
    Расширение режима : MS Stereo
    Идентификатор кодека : 55
    Идентификатор кодека/Подсказка : MP3
    Продолжительность : 52 м.
    Вид битрейта : Постоянный
    Битрейт : 128 Кбит/сек
    Каналы : 2 канала
    Частота : 48, 0 КГц
    Метод сжатия : С потерями
    Размер потока : 47, 9 Мбайт (8%)
    Выравнивание : Соединение по промежуткам
    Продолжительность промежутка : 42 мс. (1, 00 видеокадр)
    Время предзагрузки промежутка : 504 мс.
    Заголовок : Russian (AlexFilm)
    Аудио #2
    Идентификатор : 2
    Формат : MPEG Audio
    Версия формата : Version 1
    Профиль формата : Layer 3
    Режим : Joint stereo
    Расширение режима : MS Stereo
    Идентификатор кодека : 55
    Идентификатор кодека/Подсказка : MP3
    Продолжительность : 52 м.
    Вид битрейта : Постоянный
    Битрейт : 128 Кбит/сек
    Каналы : 2 канала
    Частота : 48, 0 КГц
    Метод сжатия : С потерями
    Размер потока : 47, 9 Мбайт (8%)
    Выравнивание : Соединение по промежуткам
    Продолжительность промежутка : 42 мс. (1, 00 видеокадр)
    Время предзагрузки промежутка : 504 мс.
    Заголовок : English
    Библиотека кодирования : LAME3.90.3


    Скриншоты для ознакомления




    Онлайн видео Игра престолов



    Игра престолов/Game of Thrones (2015) HDTVRip (сезон 5, серии 1 из 10) AlexFilm (обновляемая)
    загрузка...
    Рейтинг →
     (голосов: 1, оценка 3/5, голосовать можно 1 раз )

    Другие торренты по теме:

  • Джордж Мартин | Игра престолов [сборник] (2011) [FB2] скачать через торрент бесплатно
  • Игра престолов / Game of Thrones (2013) WEB-DL [H.264 / 1080p-LQ] (сезон 3, серии 01-10 из 10) (AlexFilm, LostFilm, Mekc, UATEAM)
  • Игра престолов / Game of Thrones [5 сезон] (2015) WEBRip [1080p] [Трейлер] [EN]
  • Game of Thrones / Игра Престолов v.1.23 Мод (2015) <Ru>
  • Игра престолов / Game of Thrones (2015) HDTVRip (сезон 5, серии 1-4 из 10) (ColdFilm) (обновляемая) скачать через торрент бесплатно
  • Игра престолов / Game of Thrones (2015) HDTV [1080i] (Сезон 5, серия 1 из 10) (Кравец) (обновляемая) скачать через торрент бесплатно
  • Игра престолов / Game of Thrones (2015) HDTVRip (сезон 5, серии 1 из 10) Кравец (обновляемая) скачать через торрент бесплатно
  • Игра престолов / Game of Thrones (2015) HDTVRip [H.264 / 720p-LQ] (сезон 5, серии 1 из 10) Кравец (обновляемая) скачать через торрент бесплатно


    • Комментарии (0):

      Информация

      Информация

        Посетители, находящиеся в группе Гости, не могут оставлять комментарии в данной новости.

        ↓ Меню




        ↓ Опрос

        Вы добавили сайт в закладки?
        Да
        Нет


        Top 10 за месяц (Фильмы)