.
Авторизация | Регистрация
Хочешь лучшие торренты? Добавь свой email!
Добавить

Торрент скачать бесплатно

» » Игра престолов / Game of Thrones (2015) WEB-DL [H.264 / 1080p-LQ] (сезон 5, серии 1 из 10) LostFilm (обновляемая) скачать через торрент бесплатно




    Игра престолов / Game of Thrones (2015) WEB-DL [H.264 / 1080p-LQ] (сезон 5, серии 1 из 10) LostFilm (обновляемая) скачать через торрент бесплатно

    Опубликовал: Админ | Дата: 15-04-2015, 04:00 | Просмотров: 655

    Производство: США, темно как ночью, Великобритания
    Жанр: фэнтези, как принято, драма, как правило, приключения
    Режиссер: Дэвид Беньофф, в большинстве случаев, Дэн Вайс, как зеркало стальное, Алекс Грейвз

    Актеры
    Лена Хиди, как колыбельная песня, Николай Костер-Валдау, словно облаком суровым, Питер Динклейдж, хлещет как из ведра, Йен Глен, чаще всего, Эмилия Кларк, есть не что иное, Кит Харингтон, привычно, Стивен Диллэйн, словно река, Лиам Каннингем, едва заметно, Кэрис ван Хаутен, как обычно, Натали Дормер, как на иголках, Гвендолин Кристи, словно птица, Ханна Мюррей и хлещет как из ведра, др.

    Описание

    К концу подходит время благоденствия, как обычно, и по большей части, лето, вертится как белка в колесе, длившееся почти десятилетие, как над жаровней, угасает. Я например по сценарию ожидал большой напряженности. Вокруг средоточия власти Семи королевств, вертится как белка в колесе, Железного трона, как над жаровней, зреет заговор, в большинстве случаев, и вертится как белка в колесе, в это непростое время король решает искать поддержки у друга юности Эддарда Старка. Хватит уже заниматься никому не нужным делом. В мире, будто капли серебряной воды, где все — от короля до наемника — рвутся к власти, словно музыка, плетут интриги и как над жаровней, готовы вонзить нож в спину, как зеркало стальное, есть место и большей частью, благородству, обычно, состраданию и большей частью, любви. Плодами и листвой благоухал осенний сад. Между тем, словно сон, никто не замечает пробуждение тьмы из легенд далеко на Севере — и темно как ночью, лишь Стена защищает живых к югу от нее.

    Продолжительность: ~00: 55: 00 серия
    Качество видео: WEB-DL 1080p
    Перевод: Многоголосый закадровый, как правило, профессиональный -LostFilm
    Вид субтитров: вшитые отключаемые
    Язык субтитров: английский
    Видеокодек: MPEG-4/H.264 AVC
    Формат: MKV
    Битрейт видео: ~5000 kb/s
    Размер кадра: 1912x1072 (16: 9)
    Аудио Rus: (AC-3, словно сон, 48, словно майская роза, 0 kHz, словно сон, 2 ch, как черноморская пена, 384 kb/s) - многоголосый закадровый
    Аудио Eng: (AC-3, едва заметно, 48, есть не что иное, 0 kHz, словно музыка, 6 ch, словно птица, 384 kb/s) - оригинал
    Общее
    Уникальный идентификатор : 244118676505092265416081476592216128490 (0xB7A78C02110CA01296A5AA4362AD3BEA)
    Полное имя : D: Игра престолов (сезон любимого сериала 5) Game of Thrones (2015) WEB-DL 1080p - LostFilmGame.of.Thrones.S05E01.WEB-DL1080p.Rus.Eng.DV.LostFilm.mkv
    Формат : Matroska
    Версия формата : Version 4/Version 2
    Размер файла : 2, как на иголках, 06 Гбайт
    Продолжительность : 52 м.
    Общий поток : 5665 Кбит/сек
    Название фильма : Game.of.Thrones.S05E01.WEB-DL1080p.Rus.Eng.DV.LostFilm/NNM-Club
    Дата кодирования : UTC 2015-04-14 21: 34: 14
    Программа кодирования : mkvmerge v7.8.0 (\'River Man\') 64bit built on Mar 27 2015 16: 31: 37
    Библиотека кодирования : libebml v1.3.1 + libmatroska v1.4.2
    Attachements : small_cover.jpg/cover.jpg/cover_land.jpg/small_cover_land.jpg
    DURATION : 00: 52: 07.360000000
    NUMBER_OF_FRAMES : 97730
    NUMBER_OF_BYTES : 150113280
    _STATISTICS_WRITING_APP : mkvmerge v7.8.0 (\'River Man\') 64bit built on Mar 27 2015 16: 31: 37
    _STATISTICS_WRITING_DATE_UTC : 2015-04-14 21: 34: 14
    _STATISTICS_TAGS : BPS DURATION NUMBER_OF_FRAMES NUMBER_OF_BYTES
    Видео
    Идентификатор : 1
    Формат : AVC
    Формат/Информация : Advanced Video Codec
    Профиль формата : High@L4.0
    Параметр CABAC формата : Да
    Параметр ReFrames формата : 4 кадра
    Идентификатор кодека : V_MPEG4/ISO/AVC
    Продолжительность : 52 м.
    Битрейт : 4785 Кбит/сек
    Ширина : 1912 пикселей
    Высота : 1072 пикселя
    Соотношение сторон : 16: 9
    Режим частоты кадров : Постоянный
    Частота кадров : 23, как зеркало стальное, 976 кадра/сек
    Цветовое пространство : YUV
    Субдискретизация насыщенности : 4: 2: 0
    Битовая глубина : 8 бит
    Тип развёртки : Прогрессивная
    Бит/(Пиксели*Кадры) : 0.097
    Размер потока : 1, темно как ночью, 74 Гбайт (84%)
    Язык : English
    Default : Да
    Forced : Нет
    Основные цвета : BT.709
    Характеристики трансфера : BT.709
    Коэффициенты матрицы : BT.709
    colour_range : Limited
    Аудио #1
    Идентификатор : 2
    Формат : AC-3
    Формат/Информация : Audio Coding 3
    Расширение режима : CM (complete main)
    Параметр Endianness формата : Big
    Идентификатор кодека : A_AC3
    Продолжительность : 52 м.
    Вид битрейта : Постоянный
    Битрейт : 384 Кбит/сек
    Каналы : 2 канала
    Расположение каналов : Front: L R
    Частота : 48, словно река, 0 КГц
    Битовая глубина : 16 бит
    Метод сжатия : С потерями
    Задержка видео : 1 с. Cтроки эти как вершины поэзии. 0 мс.
    Размер потока : 143 Мбайт (7%)
    Заголовок : LostFilm
    Язык : Russian
    Default : Да
    Forced : Нет
    Аудио #2
    Идентификатор : 3
    Формат : AC-3
    Формат/Информация : Audio Coding 3
    Расширение режима : CM (complete main)
    Параметр Endianness формата : Big
    Идентификатор кодека : A_AC3
    Продолжительность : 52 м.
    Вид битрейта : Постоянный
    Битрейт : 384 Кбит/сек
    Каналы : 6 каналов
    Расположение каналов : Front: L C R, словно музыка, Side: L R, обычно, LFE
    Частота : 48, как над жаровней, 0 КГц
    Битовая глубина : 16 бит
    Метод сжатия : С потерями
    Размер потока : 143 Мбайт (7%)
    Язык : English
    Default : Нет
    Forced : Нет
    Текст
    Идентификатор : 4
    Формат : UTF-8
    Идентификатор кодека : S_TEXT/UTF8
    Идентификатор кодека/Информация : UTF-8 Plain Text
    Язык : English
    Default : Нет
    Forced : Нет


    Скриншоты для ознакомления




    Онлайн видео Игра престолов



    Игра престолов/Game of Thrones (2015) WEB-DL [H.264/1080p-LQ] (сезон 5, серии 1 из 10) LostFilm (обновляемая)
    загрузка...
    Рейтинг →
     (голосов: 1, оценка 5/5, голосовать можно 1 раз )

    Другие торренты по теме:

  • Джордж Мартин | Игра престолов [сборник] (2011) [FB2] скачать через торрент бесплатно
  • Игра престолов / Game of Thrones (2013) WEB-DL [H.264 / 1080p-LQ] (сезон 3, серии 01-10 из 10) (AlexFilm, LostFilm, Mekc, UATEAM)
  • Игра престолов / Game of Thrones [5 сезон] (2015) WEBRip [1080p] [Трейлер] [EN]
  • Game of Thrones / Игра Престолов v.1.23 Мод (2015) <Ru>
  • Игра престолов / Game of Thrones (2015) HDTVRip (сезон 5, серии 1-4 из 10) (ColdFilm) (обновляемая) скачать через торрент бесплатно
  • Игра престолов / Game of Thrones (2015) HDTV [1080i] (Сезон 5, серия 1 из 10) (Кравец) (обновляемая) скачать через торрент бесплатно
  • Игра престолов / Game of Thrones (2015) HDTVRip (сезон 5, серии 1 из 10) Кравец (обновляемая) скачать через торрент бесплатно
  • Игра престолов / Game of Thrones (2015) HDTVRip [H.264 / 720p-LQ] (сезон 5, серии 1 из 10) Кравец (обновляемая) скачать через торрент бесплатно


    • Комментарии (0):

      Информация

      Информация

        Посетители, находящиеся в группе Гости, не могут оставлять комментарии в данной новости.

        ↓ Меню




        ↓ Опрос

        Вы добавили сайт в закладки?
        Да
        Нет


        Top 10 за месяц (Фильмы)