.
Авторизация | Регистрация
Хочешь лучшие торренты? Добавь свой email!
Добавить

Торрент скачать бесплатно

» » Непригодные для свиданий / Undateable (2015) WEB-DL [H.264 / 720p-LQ] (Сезон 2, серии 1-3 из 10) (BaibaKo) (обновляемая) скачать через торрент бесплатно




    Непригодные для свиданий / Undateable (2015) WEB-DL [H.264 / 720p-LQ] (Сезон 2, серии 1-3 из 10) (BaibaKo) (обновляемая) скачать через торрент бесплатно

    Опубликовал: Админ | Дата: 14-04-2015, 04:00 | Просмотров: 80

    Производство: США
    Жанр: Комедия
    Режиссер: Скотт Эллис, Дэвид Трейнер, Тед Уасс

    Актеры
    Крис Д’Илайа, Брент Морин, Бьянка Кэйлик, Рик Глассман, Рон Фанчес, Брига Хилэн, Хантер Элизабет, Дэвид Финн, Эрин Бодин, Малиабет Джонсон и др.

    Описание

    Комедийный сериал расскажет о группе друзей, у которых всё не ладится с личной жизнью. Самое интересное в это истории, что об этом Кравчук ничего не знал. Можно даже сказать, что коллеги по несчастью уже согласились со своей участью и даже не предпринимают никаких попыток, а если таковые иногда и случаются, то заведомо их ожидает крах... Но вот однажды к одному из этих парней, Джастину, приезжает профессиональный бездельник и повеса Дэнни Биман. Гость оказывается в окружении чудаков и неудачников, жаждущих романтики. Взрывоопасный вопрос, сказал кто то из толпы, к чему не понятно. Он начинает учить ребят искусству обольщения.

    Релиз от: BaibaKo
    Продолжительность: ~00: 21: 00 серия
    Качество видео: WEB-DL 720p
    Перевод: Профессиональный многоголосый закадровый -BaibaKo
    Озвучка: Юлия Котурбаш, Дмитрий Нежельский, Александр Фурман и Денис Толяренко
    Автор перевода: Татьяна Ланцетова
    Формат: MKV
    Видео: 1280x718 (16: 9), 23.976 fps, AVC/H.264 ~3977 Kbps, ~0.180 bit/pixel
    Аудио Rus: AC3, 384 kbps, 6 ch, 48 kHz
    Аудио Eng: AC3, 384 kbps, 6 ch, 48 kHz
    Общее
    Undateable - Непригодные для свиданий. Сезон 2. BaibaKo. Прикольно все это наверно придумал Кравчук потратив достаточно времени. 720pUndateable.s02e01.HD720p.WEB-DL.Rus.Eng.BaibaKo.tv.mkv
    Формат : Matroska
    Версия формата : Version 4/Version 2
    Размер файла : 745 Мбайт
    Продолжительность : 21 м.
    Общий поток : 4841 Кбит/сек
    Название фильма : BaibaKo.tv presents - Непригодные для свиданий 2х01 В бар входит японский бизнесмен
    Дата кодирования : UTC 2015-04-12 17: 22: 09
    Программа кодирования : mkvmerge v7.8.0 (\'River Man\') 64bit built on Mar 27 2015 16: 31: 37
    Библиотека кодирования : libebml v1.3.1 + libmatroska v1.4.2
    DURATION : 00: 21: 31.808000000
    NUMBER_OF_FRAMES : 40369
    NUMBER_OF_BYTES : 62006784
    _STATISTICS_WRITING_APP : mkvmerge v7.8.0 (\'River Man\') 64bit built on Mar 27 2015 16: 31: 37
    _STATISTICS_WRITING_DATE_UTC : 2015-04-12 17: 22: 09
    _STATISTICS_TAGS : BPS DURATION NUMBER_OF_FRAMES NUMBER_OF_BYTES
    Видео
    Идентификатор : 1
    Формат : AVC
    Формат/Информация : Advanced Video Codec
    Профиль формата : High@L3.1
    Параметр CABAC формата : Нет
    Параметр ReFrames формата : 2 кадра
    Идентификатор кодека : V_MPEG4/ISO/AVC
    Продолжительность : 21 м.
    Битрейт : 3977 Кбит/сек
    Ширина : 1280 пикселей
    Высота : 718 пикселей
    Соотношение сторон : 16: 9
    Режим частоты кадров : Постоянный
    Частота кадров : 23, 976 кадра/сек
    Цветовое пространство : YUV
    Субдискретизация насыщенности : 4: 2: 0
    Битовая глубина : 8 бит
    Тип развёртки : Прогрессивная
    Бит/(Пиксели*Кадры) : 0.180
    Размер потока : 612 Мбайт (82%)
    Язык : English
    Default : Да
    Forced : Нет
    Основные цвета : BT.709
    Характеристики трансфера : BT.709
    Коэффициенты матрицы : BT.709
    colour_range : Limited
    Аудио #1
    Идентификатор : 2
    Формат : AC-3
    Формат/Информация : Audio Coding 3
    Расширение режима : CM (complete main)
    Параметр Endianness формата : Big
    Идентификатор кодека : A_AC3
    Продолжительность : 21 м.
    Вид битрейта : Постоянный
    Битрейт : 384 Кбит/сек
    Каналы : 6 каналов
    Расположение каналов : Front: L C R, Side: L R, LFE
    Частота : 48, 0 КГц
    Битовая глубина : 16 бит
    Метод сжатия : С потерями
    Размер потока : 59, 1 Мбайт (8%)
    Заголовок : Rus BaibaKo.tv DD5.1
    Язык : Russian
    Default : Да
    Forced : Нет
    Аудио #2
    Идентификатор : 3
    Формат : AC-3
    Формат/Информация : Audio Coding 3
    Расширение режима : CM (complete main)
    Параметр Endianness формата : Big
    Идентификатор кодека : A_AC3
    Продолжительность : 21 м.
    Вид битрейта : Постоянный
    Битрейт : 384 Кбит/сек
    Каналы : 6 каналов
    Расположение каналов : Front: L C R, Side: L R, LFE
    Частота : 48, 0 КГц
    Битовая глубина : 16 бит
    Метод сжатия : С потерями
    Размер потока : 59, 1 Мбайт (8%)
    Заголовок : Original DD5.1
    Язык : English
    Default : Нет
    Forced : Нет


    Скриншоты для ознакомления




    Онлайн видео Непригодные для свиданий



    Непригодные для свиданий/Undateable (2015) WEB-DL [H.264/720p-LQ] (Сезон 2, серии 1-3 из 10) (BaibaKo) (обновляемая)
    загрузка...
    Рейтинг →
     (голосов: 1, оценка 5/5, голосовать можно 1 раз )

    Другие торренты по теме:



      Комментарии (0):

      Информация

      Информация

        Посетители, находящиеся в группе Гости, не могут оставлять комментарии в данной новости.

        ↓ Меню




        ↓ Опрос

        Вы добавили сайт в закладки?
        Да
        Нет


        Top 10 за месяц (Фильмы)