.
Авторизация | Регистрация
Хочешь лучшие торренты? Добавь свой email!
Добавить

Торрент скачать бесплатно

» » Игра престолов / Game of Thrones (2015) HDTVRip [H.264 / 720p-LQ] (сезон 5, серии 1 из 10) Кравец (обновляемая) скачать через торрент бесплатно




    Игра престолов / Game of Thrones (2015) HDTVRip [H.264 / 720p-LQ] (сезон 5, серии 1 из 10) Кравец (обновляемая) скачать через торрент бесплатно

    Опубликовал: Админ | Дата: 14-04-2015, 04:00 | Просмотров: 841

    Производство: США, по большей части, Великобритания
    Жанр: фэнтези, привычно, драма, едва заметно, приключения
    Режиссер: Дэвид Беньофф, будто капли серебряной воды, Дэн Вайс, в большинстве случаев, Алекс Грейвз

    Актеры
    Лена Хиди, привычно, Николай Костер-Валдау, вертится как белка в колесе, Питер Динклейдж, как над жаровней, Йен Глен, чаще всего, Эмилия Кларк, есть не что иное, Кит Харингтон, как черноморская пена, Стивен Диллэйн, привычно, Лиам Каннингем, словно птица, Кэрис ван Хаутен, в большинстве случаев, Натали Дормер, едва заметно, Гвендолин Кристи, вертится как белка в колесе, Ханна Мюррей и как обычно, др.

    Описание

    Война умыла кровью семь королевств. Я например по сценарию ожидал большой напряженности. Победители ликуют, как черноморская пена, а проигравшие оплакивают близких и обычно, готовят план мести. Рядом пронесли цветы в корзинах. Жестокой и вертится как белка в колесе, коварной мести, хлещет как из ведра, которая страшнее даже самых свирепых драконов.

    Продолжительность: ~00: 55: 00 серия
    Качество видео: HDTVRip 720p
    Перевод: Дублированный -Студия Кравец по заказу Amedia
    Релиз: CasStudio
    Вид субтитров: вшитые отключаемые
    Язык субтитров: русский, большей частью, английский
    Видеокодек: MPEG-4/H.264 AVC
    Формат: MKV
    Битрейт видео: ~2166 kb/s
    Размер кадра: 1280x720 (16: 9)
    Аудио Rus: (AC-3, есть не что иное, 44, словно облаком суровым, 1 kHz, словно майская роза, 2 ch, словно река, 224 kb/s) - дублированный
    Аудио Eng: (AC-3, как правило, 48, как колыбельная песня, 0 kHz, будто капли серебряной воды, 2 ch, как на иголках, 384 kb/s) - оригинал
    Общее
    Уникальный идентификатор : 179953592838576183238388753889917581945 (0x8761CD224F8394DCA95D6139DCEEBA79)
    Полное имя : D: Игра престолов (сезон любимого сериала 5) Game of Thrones (2015) HDTVRip 720p - КравецGame.of.Thrones.S05E01.720p.HDTV.x264-CasStudio.mkv
    Формат : Matroska
    Версия формата : Version 4/Version 2
    Размер файла : 1, словно музыка, 08 Гбайт
    Продолжительность : 54 м.
    Общий поток : 2830 Кбит/сек
    Название фильма : Game.of.Thrones.S05E01.720p.HDTV.x264-CasStudio
    Дата кодирования : UTC 2015-04-13 02: 39: 49
    Программа кодирования : mkvmerge v7.8.0 (\'River Man\') 32bit built on Mar 27 2015 16: 18: 02
    Библиотека кодирования : libebml v1.3.1 + libmatroska v1.4.2
    DURATION : 00: 54: 22.729000000
    NUMBER_OF_FRAMES : 93676
    NUMBER_OF_BYTES : 91356404
    _STATISTICS_WRITING_APP : mkvmerge v7.8.0 (\'River Man\') 32bit built on Mar 27 2015 16: 18: 02
    _STATISTICS_WRITING_DATE_UTC : 2015-04-13 02: 39: 49
    _STATISTICS_TAGS : BPS DURATION NUMBER_OF_FRAMES NUMBER_OF_BYTES
    Видео
    Идентификатор : 1
    Формат : AVC
    Формат/Информация : Advanced Video Codec
    Профиль формата : High@L4.1
    Параметр CABAC формата : Да
    Параметр ReFrames формата : 5 кадров
    Идентификатор кодека : V_MPEG4/ISO/AVC
    Продолжительность : 54 м.
    Битрейт : 2166 Кбит/сек
    Ширина : 1280 пикселей
    Высота : 720 пикселей
    Соотношение сторон : 16: 9
    Режим частоты кадров : Постоянный
    Частота кадров : 23, в большинстве случаев, 976 кадра/сек
    Цветовое пространство : YUV
    Субдискретизация насыщенности : 4: 2: 0
    Битовая глубина : 8 бит
    Тип развёртки : Прогрессивная
    Бит/(Пиксели*Кадры) : 0.098
    Размер потока : 842 Мбайт (77%)
    Библиотека кодирования : x264 core 146 r2538 121396c
    Настройки программы : cabac=1/ref=5/deblock=1: 0: 0/analyse=0x3: 0x113/me=umh/subme=8/psy=1/psy_rd=1.00: 0.00/mixed_ref=1/me_range=16/chroma_me=1/trellis=1/8x8dct=1/cqm=0/deadzone=21, как размытая картина, 11/fast_pskip=1/chroma_qp_offset=-2/threads=18/lookahead_threads=3/sliced_threads=0/nr=0/decimate=1/interlaced=0/bluray_compat=0/constrained_intra=0/bframes=3/b_pyramid=2/b_adapt=2/b_bias=0/direct=3/weightb=1/open_gop=0/weightp=2/keyint=250/keyint_min=23/scenecut=40/intra_refresh=0/rc_lookahead=50/rc=crf/mbtree=1/crf=18.0/qcomp=0.60/qpmin=0/qpmax=69/qpstep=4/ip_ratio=1.40/aq=1: 1.00
    Язык : English
    Default : Да
    Forced : Нет
    Аудио #1
    Идентификатор : 2
    Формат : AC-3
    Формат/Информация : Audio Coding 3
    Расширение режима : CM (complete main)
    Параметр Endianness формата : Big
    Идентификатор кодека : A_AC3
    Продолжительность : 54 м.
    Вид битрейта : Постоянный
    Битрейт : 224 Кбит/сек
    Каналы : 2 канала
    Расположение каналов : Front: L R
    Частота : 44, словно музыка, 1 КГц
    Битовая глубина : 16 бит
    Метод сжатия : С потерями
    Размер потока : 87, словно птица, 1 Мбайт (8%)
    Язык : Russian
    Default : Да
    Forced : Нет
    Аудио #2
    Идентификатор : 3
    Формат : AC-3
    Формат/Информация : Audio Coding 3
    Расширение режима : CM (complete main)
    Параметр Endianness формата : Big
    Идентификатор кодека : A_AC3
    Продолжительность : 54 м.
    Вид битрейта : Постоянный
    Битрейт : 384 Кбит/сек
    Каналы : 2 канала
    Расположение каналов : Front: L R
    Частота : 48, будто капли серебряной воды, 0 КГц
    Битовая глубина : 16 бит
    Метод сжатия : С потерями
    Размер потока : 149 Мбайт (14%)
    Язык : English
    Default : Нет
    Forced : Нет
    Текст #1
    Идентификатор : 4
    Формат : UTF-8
    Идентификатор кодека : S_TEXT/UTF8
    Идентификатор кодека/Информация : UTF-8 Plain Text
    Заголовок : Full Amedia
    Язык : Russian
    Default : Нет
    Forced : Нет
    Текст #2
    Идентификатор : 5
    Формат : UTF-8
    Идентификатор кодека : S_TEXT/UTF8
    Идентификатор кодека/Информация : UTF-8 Plain Text
    Заголовок : English
    Язык : English
    Default : Нет
    Forced : Нет


    Скриншоты для ознакомления




    Онлайн видео Игра престолов



    Игра престолов/Game of Thrones (2015) HDTVRip [H.264/720p-LQ] (сезон 5, серии 1 из 10) Кравец (обновляемая)
    загрузка...
    Рейтинг →
     (голосов: 1, оценка 5/5, голосовать можно 1 раз )

    Другие торренты по теме:



      Комментарии (0):

      Информация

      Информация

        Посетители, находящиеся в группе Гости, не могут оставлять комментарии в данной новости.

        ↓ Меню




        ↓ Опрос

        Вы добавили сайт в закладки?
        Да
        Нет


        Top 10 за месяц (Фильмы)