.
Авторизация | Регистрация
Хочешь лучшие торренты? Добавь свой email!
Добавить

Торрент скачать бесплатно

» » Игра престолов / Game of Thrones (2015) HDTVRip (сезон 5, серии 1 из 10) Кравец (обновляемая) скачать через торрент бесплатно




    Игра престолов / Game of Thrones (2015) HDTVRip (сезон 5, серии 1 из 10) Кравец (обновляемая) скачать через торрент бесплатно

    Опубликовал: Админ | Дата: 14-04-2015, 04:00 | Просмотров: 545

    Производство: США, Великобритания
    Жанр: фэнтези, драма, приключения
    Режиссер: Дэвид Беньофф, Дэн Вайс, Алекс Грейвз

    Актеры
    Лена Хиди, Николай Костер-Валдау, Питер Динклейдж, Йен Глен, Эмилия Кларк, Кит Харингтон, Стивен Диллэйн, Лиам Каннингем, Кэрис ван Хаутен, Натали Дормер, Гвендолин Кристи, Ханна Мюррей и др.

    Описание

    Война умыла кровью семь королевств. Победители ликуют, а проигравшие оплакивают близких и готовят план мести. Жестокой и коварной мести, которая страшнее даже самых свирепых драконов.

    Продолжительность: ~00: 55: 00 серия
    Качество видео: HDTVRip
    Перевод: Дублированный -Студия Кравец по заказу Amedia
    Вид субтитров: отдельным файлом
    Язык субтитров: русский, английский
    Рип, синхронизация звука и субтитров: qqss44
    Видеокодек: XviD
    Формат: AVI
    Битрейт видео: ~1650 kb/s
    Размер кадра: 720х400 (16: 9)
    Аудио Rus: (AC-3, 48, 0 kHz, 2 ch, 192 kb/s) - дублированный
    Аудио Eng: (AC-3, 48, 0 kHz, 2 ch, 192 kb/s) - оригинал
    Общее
    Полное имя : D: Игра престолов (сезон любимого сериала 5) Game of Thrones (2015) HDTVRip - КравецGame.of.Thrones.S05E01.XviD.DUB.qqss44.avi
    Формат : AVI
    Формат/Информация : Audio Video Interleave
    Размер файла : 797 Мбайт
    Продолжительность : 54 м.
    Общий поток : 2050 Кбит/сек
    Программа кодирования : VirtualDubMod 1.5.10.3 |www.virtualdub-fr.org|| (build 2550/release)
    Библиотека кодирования : VirtualDubMod build 2550/release
    Видео
    Идентификатор : 0
    Формат : MPEG-4 Visual
    Профиль формата : Advanced Simple@L5
    Параметр BVOP формата : 1
    Параметр QPel формата : Нет
    Параметр GMC формата : Без точки перехода
    Параметр матрицы формата : Default (MPEG)
    Идентификатор кодека : XVID
    Идентификатор кодека/Подсказка : XviD
    Продолжительность : 54 м.
    Битрейт : 1651 Кбит/сек
    Ширина : 720 пикселей
    Высота : 400 пикселей
    Соотношение сторон : 16: 9
    Частота кадров : 23, 976 кадра/сек
    Цветовое пространство : YUV
    Субдискретизация насыщенности : 4: 2: 0
    Битовая глубина : 8 бит
    Тип развёртки : Прогрессивная
    Метод сжатия : С потерями
    Бит/(Пиксели*Кадры) : 0.239
    Размер потока : 642 Мбайт (81%)
    Библиотека кодирования : XviD 73
    Аудио #1
    Идентификатор : 1
    Формат : AC-3
    Формат/Информация : Audio Coding 3
    Расширение режима : CM (complete main)
    Параметр Endianness формата : Big
    Идентификатор кодека : 2000
    Продолжительность : 54 м.
    Вид битрейта : Постоянный
    Битрейт : 192 Кбит/сек
    Каналы : 2 канала
    Расположение каналов : Front: L R
    Частота : 48, 0 КГц
    Битовая глубина : 16 бит
    Метод сжатия : С потерями
    Размер потока : 74, 7 Мбайт (9%)
    Выравнивание : Разделение по промежуткам
    Продолжительность промежутка : 42 мс. (1, 00 видеокадр)
    Время предзагрузки промежутка : 500 мс.
    Аудио #2
    Идентификатор : 2
    Формат : AC-3
    Формат/Информация : Audio Coding 3
    Расширение режима : CM (complete main)
    Параметр Endianness формата : Big
    Идентификатор кодека : 2000
    Продолжительность : 54 м.
    Вид битрейта : Постоянный
    Битрейт : 192 Кбит/сек
    Каналы : 2 канала
    Расположение каналов : Front: L R
    Частота : 48, 0 КГц
    Битовая глубина : 16 бит
    Метод сжатия : С потерями
    Размер потока : 74, 7 Мбайт (9%)
    Выравнивание : Разделение по промежуткам
    Продолжительность промежутка : 42 мс. (1, 00 видеокадр)
    Время предзагрузки промежутка : 500 мс.


    Скриншоты для ознакомления




    Онлайн видео Игра престолов



    Игра престолов/Game of Thrones (2015) HDTVRip (сезон 5, серии 1 из 10) Кравец (обновляемая)
    загрузка...
    Рейтинг →
     (голосов: 1, оценка 5/5, голосовать можно 1 раз )

    Другие торренты по теме:

  • Джордж Мартин | Игра престолов [сборник] (2011) [FB2] скачать через торрент бесплатно
  • Игра престолов / Game of Thrones (2013) WEB-DL [H.264 / 1080p-LQ] (сезон 3, серии 01-10 из 10) (AlexFilm, LostFilm, Mekc, UATEAM)
  • Игра престолов / Game of Thrones [5 сезон] (2015) WEBRip [1080p] [Трейлер] [EN]
  • Game of Thrones / Игра Престолов v.1.23 Мод (2015) <Ru>
  • Игра престолов / Game of Thrones (2015) HDTVRip (сезон 5, серии 1-4 из 10) (ColdFilm) (обновляемая) скачать через торрент бесплатно
  • Игра престолов / Game of Thrones (2015) HDTV [1080i] (Сезон 5, серия 1 из 10) (Кравец) (обновляемая) скачать через торрент бесплатно
  • Игра престолов / Game of Thrones (2015) HDTVRip [H.264 / 720p-LQ] (сезон 5, серии 1 из 10) Кравец (обновляемая) скачать через торрент бесплатно
  • Игра престолов / Game of Thrones (2015) WEB-DLRip [H.264] (Сезон 5, Серии 1-4 из 10) ColdFilm [MP4|640x340] скачать через торрент бесплатно


    • Комментарии (0):

      Информация

      Информация

        Посетители, находящиеся в группе Гости, не могут оставлять комментарии в данной новости.

        ↓ Меню




        ↓ Опрос

        Вы добавили сайт в закладки?
        Да
        Нет


        Top 10 за месяц (Фильмы)