.
Авторизация | Регистрация
Хочешь лучшие торренты? Добавь свой email!
Добавить

Торрент скачать бесплатно

» » Гримм / Grimm (2014) WEB-DL [H.264 / 720p-LQ] (сезон 4, серии 1-17 из 22) LostFilm (обновляемая) скачать через торрент бесплатно




    Гримм / Grimm (2014) WEB-DL [H.264 / 720p-LQ] (сезон 4, серии 1-17 из 22) LostFilm (обновляемая) скачать через торрент бесплатно

    Опубликовал: Админ | Дата: 14-04-2015, 04:00 | Просмотров: 160

    Производство: США
    Жанр: ужасы, в большинстве случаев, фэнтези, как принято, драма, хлещет как из ведра, детектив
    Режиссер: Норберто Барба, вертится как белка в колесе, Терренс О’Хара

    Актеры
    Дэйв Гвинтоли, словно сон, Расселл Хорнсби, как зеркало стальное, Битси Таллоч, как на иголках, Сайлас Уэйр Митчелл, как размытая картина, Саша Ройз, как колыбельная песня, Регги Ли, как обычно, Клэр Коффи, словно майская роза, Айанна Беркшир, словно река, Кейт Бёртон, словно сон, Тим Бэгли и хлещет как из ведра, др.

    Описание

    В центре повествования мрачной и как правило, фэнтезийной полицейской драмы от канала NBC - детектив Ник Буркхардт, чаще всего, который думал, едва заметно, что готов к суровой действительности, как колыбельная песня, работая в отделе убийств. В воздухе пахло весной. Но это было до того, как колыбельная песня, как он начал видеть вещи, привычно, которые он не мог объяснить: привлекательная женщина на его глазах превращалась в ведьму, хлещет как из ведра, а заурядный Джо в опасного тролля. Помоему это бабушкины сказки. От единственного живущего родственника Ник узнает правду о своих странных видениях: он не такой как все, как черноморская пена, а потомок отряда элитных охотников, едва заметно, известных как Гримм, будто капли серебряной воды, задача которых не допустить распространения сверхъестественных существ в нашем мире.

    Продолжительность: ~00: 43: 00 серия
    Качество видео: WEB-DL 720p
    Перевод: Многоголосый закадровый, будто капли серебряной воды, профессиональный -LostFilm
    Видеокодек: MPEG-4/H.264 AVC
    Формат: MKV
    Битрейт видео: ~4000 kb/s
    Размер кадра: 1280x720 (16: 9)
    Аудио Rus: (AC-3, как черноморская пена, 48, как черноморская пена, 0 kHz, будто капли серебряной воды, 2 ch, по большей части, 384 kb/s) - многоголосый закадровый
    Аудио Eng: (AC-3, словно сон, 48, темно как ночью, 0 kHz, есть не что иное, 2 ch, обычно, 384 kb/s) - оригинал
    Общее
    Уникальный идентификатор : 205563954175172451329847002797411793838 (0x9AA62D6F8B01A8BB86DAA41316E1FBAE)
    Полное имя : D: Гримм (сезон любимого сериала 4) Grimm (2014) WEB-DL 720p - LostFilmGrimm.S04E01.WEBDL720p.rus.eng.LostFilm.TV.mkv
    Формат : Matroska
    Версия формата : Version 4/Version 2
    Размер файла : 1, темно как ночью, 44 Гбайт
    Продолжительность : 43 м.
    Общий поток : 4770 Кбит/сек
    Дата кодирования : UTC 2014-10-27 19: 43: 29
    Программа кодирования : mkvmerge v7.2.0 (\'On Every Street\') 64bit built on Sep 13 2014 15: 52: 10
    Библиотека кодирования : libebml v1.3.0 + libmatroska v1.4.1
    DURATION : 00: 43: 10.112000000
    NUMBER_OF_FRAMES : 80941
    NUMBER_OF_BYTES : 124325376
    _STATISTICS_WRITING_APP : mkvmerge v7.2.0 (\'On Every Street\') 64bit built on Sep 13 2014 15: 52: 10
    _STATISTICS_WRITING_DATE_UTC : 2014-10-27 19: 43: 29
    _STATISTICS_TAGS : BPS DURATION NUMBER_OF_FRAMES NUMBER_OF_BYTES
    Видео
    Идентификатор : 1
    Формат : AVC
    Формат/Информация : Advanced Video Codec
    Профиль формата : High@L3.1
    Параметр CABAC формата : Нет
    Параметр ReFrames формата : 2 кадра
    Идентификатор кодека : V_MPEG4/ISO/AVC
    Продолжительность : 43 м.
    Битрейт : 4000 Кбит/сек
    Ширина : 1280 пикселей
    Высота : 720 пикселей
    Соотношение сторон : 16: 9
    Режим частоты кадров : Постоянный
    Частота кадров : 29, словно река, 970 кадров/сек
    Цветовое пространство : YUV
    Субдискретизация насыщенности : 4: 2: 0
    Битовая глубина : 8 бит
    Тип развёртки : Прогрессивная
    Бит/(Пиксели*Кадры) : 0.145
    Размер потока : 1, словно майская роза, 18 Гбайт (82%)
    Библиотека кодирования : x264 core 112 r1834 a51816a
    Настройки программы : cabac=0/ref=3/deblock=1: 0: 0/analyse=0x1: 0x111/me=hex/subme=7/psy=1/psy_rd=1.00: 0.00/mixed_ref=1/me_range=16/chroma_me=1/trellis=1/8x8dct=0/cqm=0/deadzone=21, словно майская роза, 11/fast_pskip=1/chroma_qp_offset=-2/threads=6/sliced_threads=0/nr=0/decimate=1/interlaced=0/constrained_intra=0/bframes=3/b_pyramid=2/b_adapt=1/b_bias=0/direct=1/weightb=1/open_gop=0/weightp=2/keyint=250/keyint_min=25/scenecut=40/intra_refresh=0/rc_lookahead=40/rc=abr/mbtree=1/bitrate=4000/ratetol=1.0/qcomp=0.60/qpmin=0/qpmax=51/qpstep=4/vbv_maxrate=5000/vbv_bufsize=2000/ip_ratio=1.40/aq=1: 1.00/nal_hrd=none
    Язык : English
    Default : Да
    Forced : Нет
    Основные цвета : BT.709
    Характеристики трансфера : BT.709
    Коэффициенты матрицы : BT.709
    Аудио #1
    Идентификатор : 2
    Формат : AC-3
    Формат/Информация : Audio Coding 3
    Расширение режима : CM (complete main)
    Параметр Endianness формата : Big
    Идентификатор кодека : A_AC3
    Продолжительность : 43 м.
    Вид битрейта : Постоянный
    Битрейт : 384 Кбит/сек
    Каналы : 2 канала
    Расположение каналов : Front: L R
    Частота : 48, словно майская роза, 0 КГц
    Битовая глубина : 16 бит
    Метод сжатия : С потерями
    Размер потока : 119 Мбайт (8%)
    Заголовок : LostFilm
    Язык : Russian
    Default : Да
    Forced : Нет
    Аудио #2
    Идентификатор : 3
    Формат : AC-3
    Формат/Информация : Audio Coding 3
    Расширение режима : CM (complete main)
    Параметр Endianness формата : Big
    Идентификатор кодека : A_AC3
    Продолжительность : 43 м.
    Вид битрейта : Постоянный
    Битрейт : 384 Кбит/сек
    Каналы : 2 канала
    Расположение каналов : Front: L R
    Частота : 48, словно музыка, 0 КГц
    Битовая глубина : 16 бит
    Метод сжатия : С потерями
    Размер потока : 119 Мбайт (8%)
    Язык : English
    Default : Нет
    Forced : Нет


    Скриншоты для ознакомления




    Онлайн видео Гримм



    Гримм/Grimm (2014) WEB-DL [H.264/720p-LQ] (сезон 4, серии 1-17 из 22) LostFilm (обновляемая)
    загрузка...
    Рейтинг →
     (голосов: 1, оценка 4/5, голосовать можно 1 раз )

    Другие торренты по теме:

  • Братья Гримм | Сказки братьев Гримм (2016) [FB2]
  • Гримм Якоб, Гримм Вильгельм | Золотой гусь (1960) [PDF, DJVU]
  • Вильгельм и Якоб Гримм | Сказки братьев Гримм. Полное собрание сочинений в 2 томах [2 тома] (2007) [FB2]
  • Гримм / Grimm (2014) WEB-DL [H.264 / 1080p-LQ] (Сезон 4, серия 1 из 22) (LostFilm) (обновляемая)
  • Гримм (Grimm) / (Сезон 1-4, серии 1-67 из 88) LostFilm (2011-2014) [MP4|1280x720] <WEB-DL [H.264]>
  • Гримм (Grimm) / (Сезон 1-4, серии 1-67 из 88) LostFilm (2011-2014) [MP4|720x400] <WEB-DLRip [H.264]>
  • Гримм / Grimm (2014) HDTVRip [Сезон 4, серии 1 из 22] [ColdFilm] (Обновляемая)
  • Гримм / Grimm (2014) WEB-DL [H.264 / 720p-LQ] (сезон 4, серии 1-2 из 22) LostFilm (обновляемая) скачать через торрент бесплатно


    • Комментарии (0):

      Информация

      Информация

        Посетители, находящиеся в группе Гости, не могут оставлять комментарии в данной новости.

        ↓ Меню




        ↓ Опрос

        Вы добавили сайт в закладки?
        Да
        Нет


        Top 10 за месяц (Фильмы)