.
Авторизация | Регистрация
Хочешь лучшие торренты? Добавь свой email!
Добавить

Торрент скачать бесплатно

» » Игра престолов / Game of Thrones (2015) HDTVRip (сезон 5, серии 1-4 из 10) (ColdFilm) (обновляемая) скачать через торрент бесплатно




    Игра престолов / Game of Thrones (2015) HDTVRip (сезон 5, серии 1-4 из 10) (ColdFilm) (обновляемая) скачать через торрент бесплатно

    Опубликовал: Админ | Дата: 14-04-2015, 04:00 | Просмотров: 536

    Производство: США, Великобритания/Bighead Littlehead, Created By, Generator Entertainment, Home Box Office (HBO), Television 360
    Жанр: фэнтези, драма, приключения
    Режиссер: Алан Тейлор, Даниэль Минахан, Дэвид Наттер

    Актеры
    Лина Хиди, Питер Динклэйдж, Мишель Фэйрли, Эмилия Кларк, Кит Харингтон, Николай Костер-Валдау, Иэн Глен, Эйден Гиллен, Элфи Оуэн-Аллен, Мэйси Уильямс, Софи Тёрнер, Джек Глисон, Айзек Хемпстед-Райт, Ричард Мэдден, Джером Флинн, Конлет Хилл, Дональд Самптер, Рори МакКанн, Амрита Ачария, Чарльз Дэнс, Джон Брэдли, Кристиан Нэйрн, Сибель Кекилли, Джеймс Космо, Стивен Диллэйн, Гетин Энтони, Гвендолин Кристи, Натали Дормер, Уна Чаплин и др.

    Описание

    К концу подходит время благоденствия, и лето, длившееся почти десятилетие, угасает. Вокруг средоточия власти Семи королевств, Железного трона, зреет заговор, и в это непростое время король решает искать поддержки у друга юности Эддарда Старка. Благодатная почва, сказал кто то из толпы, к чему не понятно. В мире, где все — от короля до наемника — рвутся к власти, плетут интриги и готовы вонзить нож в спину, есть место и благородству, состраданию и любви. Между тем, никто не замечает пробуждение тьмы из легенд далеко на Севере — и лишь Стена защищает живых к югу от нее.
    СЭМПЛ
    Продолжительность: ~00: 55: 00 серия
    Качество видео: HDTVRip
    Перевод: Двухголосый закадровый, любительский - ColdFilm
    Озвучка/Автор перевода: Moorena
    Видеокодек: XviD
    Битрейт видео: ~1000 kbps
    Размер кадра: 720x392
    Аудиокодек: MP3
    Битрейт аудио: 2 ch, ~192 kbps
    Код:

    General
    Complete name : Igra.Prestolov.S05E01.HDTVRip.ColdFilm.avi
    Format : AVI
    Format/Info : Audio Video Interleave
    File size : 440 MiB
    Duration : 52mn 34s
    Overall bit rate : 1 171 Kbps
    Writing application : VirtualDubMod 1.5.10.2 (build 2540/release)
    Writing library : VirtualDubMod build 2540/release
    Video
    ID : 0
    Format : xvid
    Codec ID : xvid
    Duration : 52mn 34s
    Bit rate : 970 Kbps
    Width : 720 pixels
    Height : 392 pixels
    Display aspect ratio : 1.85:1
    Frame rate : 25.000 fps
    Bits/(Pixel*Frame) : 0.137
    Stream size : 365 MiB (83%)
    Audio
    ID : 1
    Format : MPEG Audio
    Format version : Version 1
    Format profile : Layer 3
    Codec ID : 55
    Codec ID/Hint : MP3
    Duration : 52mn 34s
    Bit rate mode : Constant
    Bit rate : 192 Kbps
    Channel(s) : 2 channels
    Sampling rate : 44.1 KHz
    Compression mode : Lossy
    Stream size : 72.2 MiB (16%)
    Alignment : Split accross interleaves
    Interleave, duration : 40 ms (1.00 video frame)
    Interleave, preload duration : 500 ms
    General
    Complete name : Igra.Prestolov.S05E02.HDTVRip.ColdFilm.avi
    Format : AVI
    Format/Info : Audio Video Interleave
    File size : 561 MiB
    Duration : 55mn 59s
    Overall bit rate : 1 401 Kbps
    Writing application : VirtualDubMod 1.5.10.2 (build 2540/release)
    Writing library : VirtualDubMod build 2540/release
    Video
    ID : 0
    Format : xvid
    Codec ID : xvid
    Duration : 55mn 59s
    Bit rate : 1 199 Kbps
    Width : 720 pixels
    Height : 392 pixels
    Display aspect ratio : 1.85:1
    Frame rate : 25.000 fps
    Bits/(Pixel*Frame) : 0.170
    Stream size : 480 MiB (86%)
    Audio
    ID : 1
    Format : MPEG Audio
    Format version : Version 1
    Format profile : Layer 3
    Codec ID : 55
    Codec ID/Hint : MP3
    Duration : 55mn 59s
    Bit rate mode : Constant
    Bit rate : 192 Kbps
    Channel(s) : 2 channels
    Sampling rate : 44.1 KHz
    Compression mode : Lossy
    Stream size : 76.9 MiB (14%)
    Alignment : Split accross interleaves
    Interleave, duration : 40 ms (1.00 video frame)
    Interleave, preload duration : 500 ms


    Скриншоты для ознакомления




    Онлайн видео Игра престолов



    Игра престолов/Game of Thrones (2015) HDTVRip (сезон 5, серии 1-4 из 10) (ColdFilm) (обновляемая)
    загрузка...
    Рейтинг →
     (голосов: 1, оценка 4/5, голосовать можно 1 раз )

    Другие торренты по теме:

  • Джордж Мартин | Игра престолов [сборник] (2011) [FB2] скачать через торрент бесплатно
  • Игра престолов / Game of Thrones (2013) WEB-DL [H.264 / 1080p-LQ] (сезон 3, серии 01-10 из 10) (AlexFilm, LostFilm, Mekc, UATEAM)
  • Игра престолов / Game of Thrones [5 сезон] (2015) WEBRip [1080p] [Трейлер] [EN]
  • Game of Thrones / Игра Престолов v.1.23 Мод (2015) <Ru>
  • Игра престолов / Game of Thrones (2015) HDTV [1080i] (Сезон 5, серия 1 из 10) (Кравец) (обновляемая) скачать через торрент бесплатно
  • Игра престолов / Game of Thrones (2015) HDTVRip (сезон 5, серии 1 из 10) Кравец (обновляемая) скачать через торрент бесплатно
  • Игра престолов / Game of Thrones (2015) HDTVRip [H.264 / 720p-LQ] (сезон 5, серии 1 из 10) Кравец (обновляемая) скачать через торрент бесплатно
  • Игра престолов / Game of Thrones (2015) WEB-DLRip [H.264] (Сезон 5, Серии 1-4 из 10) ColdFilm [MP4|640x340] скачать через торрент бесплатно


    • Комментарии (0):

      Информация

      Информация

        Посетители, находящиеся в группе Гости, не могут оставлять комментарии в данной новости.

        ↓ Меню




        ↓ Опрос

        Вы добавили сайт в закладки?
        Да
        Нет


        Top 10 за месяц (Фильмы)