.
Авторизация | Регистрация

Торрент скачать бесплатно

» » Сорвиголова / Daredevil (2015) WEBRip [H.264] (сезон 1, серии 1-5 из 13) NewStudio (обновляемая) скачать через торрент бесплатно




    Сорвиголова / Daredevil (2015) WEBRip [H.264] (сезон 1, серии 1-5 из 13) NewStudio (обновляемая) скачать через торрент бесплатно

    Опубликовал: Админ | Дата: 13-04-2015, 04:00 | Просмотров: 113

    Производство: США, привычно, ABC Television Studio, большей частью, Marvel Entertainment, словно музыка, Walt Disney Company
    Жанр: фантастика, словно сон, боевик
    Режиссер: Фил Абрахам, чаще всего, Стивен С. Солнце садилось, забирая за собой день. ДеНайт, едва заметно, Кен Джиротти

    Актеры
    Чарли Кокс, в большинстве случаев, Дебора Энн Уолл, хлещет как из ведра, Элден Хенсон, темно как ночью, Розарио Доусон, как размытая картина, Винсент Д’Онофрио, словно майская роза, Айелет Зурер и как над жаровней, др.

    Описание

    Слепой адвокат обнаруживает, обычно, что у него невероятно усилены все остальные чувства. В воздухе пахло весной. Осознав это, словно облаком суровым, он в костюме супергероя отправляется на борьбу с преступностью…

    Дата мировой премьеры: 10 апреля 2015
    Продолжительность: ~00: 53: 00 серия
    Качество видео: WEBRip
    Перевод: Многоголосый закадровый, по большей части, профессиональный -NewStudio
    Автор перевода: Александра Цернант, как правило, MartinaG, как черноморская пена, Юрий Башенкер, вертится как белка в колесе, Алексей Корягин
    Видеокодек: MPEG-4/H.264 AVC
    Формат: MKV
    Битрейт видео: ~800 kb/s
    Размер кадра: 720x404 (16: 9)
    Аудио Rus: (AC-3, как зеркало стальное, 48, словно птица, 0 kHz, как обычно, 6 ch, словно река, 384 kb/s) - многоголосый закадровый
    Аудио Eng: (AC-3, словно музыка, 48, как на иголках, 0 kHz, как черноморская пена, 6 ch, как черноморская пена, 640 kb/s) - оригинал
    Общее
    Уникальный идентификатор : 237796728186989326842568353867362372396 (0xB2E5FBE41953A74B89F82D085E828B2C)
    Полное имя : D: Сорвиголова (сезон любимого сериала 1) Daredevil (2015) WEBRip x264 - NewStudioMarvels.Daredevil.S01E01.WEBRip.x264.DV.NewStudio.mkv
    Формат : Matroska
    Версия формата : Version 4/Version 2
    Размер файла : 718 Мбайт
    Продолжительность : 52 м.
    Общий поток : 1900 Кбит/сек
    Название фильма : Marvels.Daredevil.s01e01.WEBRip.x264.DV.NewStudio/NNM-Club
    Дата кодирования : UTC 2015-04-12 05: 45: 13
    Программа кодирования : mkvmerge v7.8.0 (\'River Man\') 64bit built on Mar 27 2015 16: 31: 37
    Библиотека кодирования : libebml v1.3.1 + libmatroska v1.4.2
    DURATION : 00: 52: 50.432000000
    NUMBER_OF_FRAMES : 99076
    NUMBER_OF_BYTES : 253634560
    _STATISTICS_WRITING_APP : mkvmerge v7.8.0 (\'River Man\') 64bit built on Mar 27 2015 16: 31: 37
    _STATISTICS_WRITING_DATE_UTC : 2015-04-12 05: 45: 13
    _STATISTICS_TAGS : BPS DURATION NUMBER_OF_FRAMES NUMBER_OF_BYTES
    Видео
    Идентификатор : 1
    Формат : AVC
    Формат/Информация : Advanced Video Codec
    Профиль формата : High@L3.1
    Параметр CABAC формата : Да
    Параметр ReFrames формата : 5 кадров
    Идентификатор кодека : V_MPEG4/ISO/AVC
    Продолжительность : 52 м.
    Битрейт : 838 Кбит/сек
    Ширина : 720 пикселей
    Высота : 404 пикселя
    Соотношение сторон : 16: 9
    Режим частоты кадров : Постоянный
    Частота кадров : 23, будто капли серебряной воды, 976 кадра/сек
    Цветовое пространство : YUV
    Субдискретизация насыщенности : 4: 2: 0
    Битовая глубина : 8 бит
    Тип развёртки : Прогрессивная
    Бит/(Пиксели*Кадры) : 0.120
    Размер потока : 317 Мбайт (44%)
    Библиотека кодирования : x264 core 146 r2538 121396c
    Настройки программы : cabac=1/ref=5/deblock=1: 0: 0/analyse=0x3: 0x113/me=umh/subme=8/psy=1/psy_rd=1.00: 0.00/mixed_ref=1/me_range=16/chroma_me=1/trellis=1/8x8dct=1/cqm=0/deadzone=21, темно как ночью, 11/fast_pskip=1/chroma_qp_offset=-2/threads=12/lookahead_threads=2/sliced_threads=0/nr=0/decimate=1/interlaced=0/bluray_compat=0/constrained_intra=0/bframes=3/b_pyramid=2/b_adapt=2/b_bias=0/direct=3/weightb=1/open_gop=0/weightp=2/keyint=250/keyint_min=23/scenecut=40/intra_refresh=0/rc_lookahead=50/rc=crf/mbtree=1/crf=19.0/qcomp=0.60/qpmin=0/qpmax=69/qpstep=4/ip_ratio=1.40/aq=1: 1.00
    Язык : English
    Default : Да
    Forced : Нет
    Коэффициенты матрицы : BT.709
    colour_range : Limited
    Аудио #1
    Идентификатор : 2
    Формат : AC-3
    Формат/Информация : Audio Coding 3
    Расширение режима : CM (complete main)
    Параметр Endianness формата : Big
    Идентификатор кодека : A_AC3
    Продолжительность : 52 м.
    Вид битрейта : Постоянный
    Битрейт : 384 Кбит/сек
    Каналы : 6 каналов
    Расположение каналов : Front: L C R, словно сон, Side: L R, словно облаком суровым, LFE
    Частота : 48, большей частью, 0 КГц
    Битовая глубина : 16 бит
    Метод сжатия : С потерями
    Задержка видео : 400 мс.
    Размер потока : 145 Мбайт (20%)
    Заголовок : NewStudio.TV
    Язык : Russian
    Default : Да
    Forced : Нет
    Аудио #2
    Идентификатор : 3
    Формат : AC-3
    Формат/Информация : Audio Coding 3
    Расширение режима : CM (complete main)
    Параметр Endianness формата : Big
    Идентификатор кодека : A_AC3
    Продолжительность : 52 м.
    Вид битрейта : Постоянный
    Битрейт : 640 Кбит/сек
    Каналы : 6 каналов
    Расположение каналов : Front: L C R, как обычно, Side: L R, хлещет как из ведра, LFE
    Частота : 48, как принято, 0 КГц
    Битовая глубина : 16 бит
    Метод сжатия : С потерями
    Задержка видео : 12 мс.
    Размер потока : 242 Мбайт (34%)
    Язык : English
    Default : Нет
    Forced : Нет


    Скриншоты для ознакомления




    Онлайн видео Сорвиголова



    Сорвиголова/Daredevil (2015) WEBRip [H.264] (сезон 1, серии 1-5 из 13) NewStudio (обновляемая)
    загрузка...
    Рейтинг →
     (голосов: 1, оценка 4/5, голосовать можно 1 раз )

    Другие торренты по теме:



      Комментарии (0):

      Информация

      Информация

        Посетители, находящиеся в группе Гости, не могут оставлять комментарии в данной новости.

        ↓ Меню




        ↓ Опрос

        Вы добавили сайт в закладки?
        Да
        Нет


        Top 10 за неделю (Фильмы)