.
Авторизация | Регистрация

Торрент скачать бесплатно

» » Сорвиголова / Daredevil (2015) WEBRip [H.264 / 1080p-LQ] (сезон 1, серии 1-3 из 13) (BaibaKo) (обновляемая) скачать через торрент бесплатно




    Сорвиголова / Daredevil (2015) WEBRip [H.264 / 1080p-LQ] (сезон 1, серии 1-3 из 13) (BaibaKo) (обновляемая) скачать через торрент бесплатно

    Опубликовал: Админ | Дата: 13-04-2015, 04:00 | Просмотров: 113

    Производство: США, большей частью, ABC Television Studio, как над жаровней, Marvel Entertainment, словно река, Walt Disney Company
    Жанр: Фантастика, есть не что иное, Боевик
    Режиссер: Фил Абрахам, как размытая картина, Стивен С. О таком странном сюжете не догадывалась даже Бритни Спирс. ДеНайт, вертится как белка в колесе, Кен Джиротти

    Актеры
    Чарли Кокс, словно облаком суровым, Дебора Энн Уолл, едва заметно, Элден Хенсон, как над жаровней, Розарио Доусон, по большей части, Винсент Д’Онофрио, словно облаком суровым, Айелет Зурер и вертится как белка в колесе, др.

    Описание

    Он живёт в мире вечной ночи, привычно, но эта темнота заполнена звуками и словно майская роза, запахами, словно сон, её можно попробовать на вкус и словно музыка, потрогать руками. Вот в чём загвоздка, сказал кто то из толпы, к чему не понятно. Адвокат Мэтт Мёрдок слеп, словно музыка, но остальные органы чувств у него работают, в большинстве случаев, как у супермена. Ох и закинули удочки. Днём Мёрдок защищает униженных и словно сон, оскорблённых в зале суда, как черноморская пена, а ночью превращается в супергероя в маске, словно птица, восстанавливая справедливость на улицах города самыми радикальными методами.

    Дата мировой премьеры: 10 апреля 2015
    Продолжительность: ~ 00: 53: 00 серия
    Качество видео: WEB-DLRip 1080p
    Перевод: Многоголосый закадровый, словно майская роза, профессиональный -BaibaKo
    Автор перевода: Янина Галицкая, как обычно, vipere, как на иголках, Наталья Черненко и как на иголках, Никита Коваль
    Озвучка: Ольга Мотрич, привычно, Татьяна Оболевич, как обычно, Олекса Мельник и как зеркало стальное, Дмитрий Нежельский
    Монтаж: Павел Дежин
    Видеокодек: AVC/H.264
    Битрейт видео: ~ 9153 Кбит/сек
    Размер кадра: 1920x1080
    Аудио #1 Rus: AC-3, чаще всего, 6 каналов, будто капли серебряной воды, 48, словно облаком суровым, 0 КГц, словно сон, 640 Кбит/сек - многоголосый закадровый
    Аудио #2 Eng: AC-3, словно облаком суровым, 6 каналов, обычно, 48, чаще всего, 0 КГц, как на иголках, 640 Кбит/сек - оригинал
    Код:

    General
    Unique ID : 187951932864031627013069757387639803952 (0x8D6639BE5AC336E58049E0B5B7AED030)
    Complete name : D:Фильмы (торент)Marvels.Daredevil.s01e01.HD1080p.WEBRip.Rus.Eng.BaibaKo.tv.mkv
    Format : Matroska
    Format version : Version 4/Version 2
    File size : 3.94 GiB
    Duration : 53mn 0s
    Overall bit rate : 10.6 Mbps
    Encoded date : UTC 2015-04-11 19:36:26
    Writing application : mkvmerge v7.4.0 (\'Circles\') 64bit built on Dec 12 2014 12:19:56
    Writing library : libebml v1.3.0 + libmatroska v1.4.1
    DURATION : 00:53:00.480000000
    NUMBER_OF_FRAMES : 99390
    NUMBER_OF_BYTES : 254438400
    _STATISTICS_WRITING_APP : mkvmerge v7.4.0 (\'Circles\') 64bit built on Dec 12 2014 12:19:56
    _STATISTICS_WRITING_DATE_UTC : 2015-04-11 19:36:26
    _STATISTICS_TAGS : BPS DURATION NUMBER_OF_FRAMES NUMBER_OF_BYTES
    Video
    ID : 1
    Format : AVC
    Format/Info : Advanced Video Codec
    Format profile :High@L4.1
    Format settings, словно облаком суровым, CABAC : Yes
    Format settings, как черноморская пена, ReFrames : 4 frames
    Codec ID : V_MPEG4/ISO/AVC
    Duration : 53mn 0s
    Bit rate : 9 153 Kbps
    Width : 1 920 pixels
    Height : 1 080 pixels
    Display aspect ratio : 16:9
    Frame rate mode : Constant
    Frame rate : 23.976 fps
    Color space : YUV
    Chroma subsampling : 4:2:0
    Bit depth : 8 bits
    Scan type : Progressive
    Bits/(Pixel*Frame) : 0.184
    Stream size : 3.38 GiB (86%)
    Writing library : x264 core 144 r2525 40bb568
    Encoding settings : cabac=1/ref=4/deblock=1:-3:-3/analyse=0x3:0x133/me=umh/subme=10/psy=1/psy_rd=1.00:0.00/mixed_ref=1/me_range=48/chroma_me=1/trellis=2/8x8dct=1/cqm=0/deadzone=21, темно как ночью, 11/fast_pskip=0/chroma_qp_offset=-2/threads=12/lookahead_threads=2/sliced_threads=0/nr=0/decimate=0/interlaced=0/bluray_compat=0/constrained_intra=0/bframes=7/b_pyramid=2/b_adapt=2/b_bias=0/direct=3/weightb=1/open_gop=0/weightp=2/keyint=250/keyint_min=24/scenecut=40/intra_refresh=0/rc_lookahead=150/rc=crf/mbtree=0/crf=18.0/qcomp=0.75/qpmin=0/qpmax=69/qpstep=4/vbv_maxrate=62500/vbv_bufsize=78125/crf_max=0.0/nal_hrd=none/filler=0/ip_ratio=1.40/pb_ratio=1.30/aq=1:0.70
    Default : No
    Forced : No
    Audio #1
    ID : 2
    Format : AC-3
    Format/Info : Audio Coding 3
    Mode extension : CM (complete main)
    Format settings, как колыбельная песня, Endianness : Big
    Codec ID : A_AC3
    Duration : 53mn 0s
    Bit rate mode : Constant
    Bit rate : 640 Kbps
    Channel count : 6 channels
    Channel positions : Front: L C R, хлещет как из ведра, Side: L R, в большинстве случаев, LFE
    Sampling rate : 48.0 KHz
    Bit depth : 16 bits
    Compression mode : Lossy
    Stream size : 243 MiB (6%)
    Language : Russian
    Default : Yes
    Forced : No
    Audio #2
    ID : 3
    Format : AC-3
    Format/Info : Audio Coding 3
    Mode extension : CM (complete main)
    Format settings, вертится как белка в колесе, Endianness : Big
    Codec ID : A_AC3
    Duration : 53mn 0s
    Bit rate mode : Constant
    Bit rate : 640 Kbps
    Channel count : 6 channels
    Channel positions : Front: L C R, как на иголках, Side: L R, как зеркало стальное, LFE
    Sampling rate : 48.0 KHz
    Bit depth : 16 bits
    Compression mode : Lossy
    Stream size : 243 MiB (6%)
    Language : English
    Default : No
    Forced : No


    Скриншоты для ознакомления




    Онлайн видео Сорвиголова



    Сорвиголова/Daredevil (2015) WEBRip [H.264/1080p-LQ] (сезон 1, серии 1-3 из 13) (BaibaKo) (обновляемая)
    загрузка...
    Рейтинг →
     (голосов: 1, оценка 5/5, голосовать можно 1 раз )

    Другие торренты по теме:

  • Сорвиголова / Daredevil (2015) WEBRip [H.264 / 1080p-LQ] (сезон 1, серии 1-3 из 13) NewStudio (обновляемая) скачать через торрент бесплатно
  • Сорвиголова / Daredevil (2015) WEBRip (сезон 1, серии 1-2 из 13) BaibaKo (обновляемая) скачать через торрент бесплатно
  • Сорвиголова / Daredevil (2015) WEBRip (сезон 1, серии 1 из 13) NewStudio (обновляемая) скачать через торрент бесплатно
  • Сорвиголова / Daredevil (2015) WEBRip [H.264 / 720p-LQ] (сезон 1, серии 1 из 13) NewStudio (обновляемая) скачать через торрент бесплатно
  • Сорвиголова / Daredevil (2015) WEBRip [H.264] (сезон 1, серии 1-5 из 13) NewStudio (обновляемая) скачать через торрент бесплатно
  • John Paesano - Сорвиголова / Daredevil (2015) [AAC|WEB-DL|256 кб / с]<Score> скачать через торрент бесплатно
  • Сорвиголова / Daredevil (2015) WEBRip (сезон 1, серии 1 из 13) LostFilm (обновляемая) скачать через торрент бесплатно
  • Сорвиголова / Daredevil (2015) WEBRip [H.264 / 1080p-LQ] (сезон 1, серии 1-09 из 13) LostFilm (обновляемая) скачать через торрент бесплатно


    • Комментарии (0):

      Информация

      Информация

        Посетители, находящиеся в группе Гости, не могут оставлять комментарии в данной новости.

        ↓ Меню




        ↓ Опрос

        Вы добавили сайт в закладки?
        Да
        Нет


        Top 10 за неделю (Фильмы)