.
Авторизация | Регистрация
Хочешь лучшие торренты? Добавь свой email!
Добавить

Торрент скачать бесплатно

» » Элементарно / Elementary (2014) WEB-DLRip (сезон 3, серии 1-19 из 24) LostFilm (oбновляемая) скачать через торрент бесплатно




    Элементарно / Elementary (2014) WEB-DLRip (сезон 3, серии 1-19 из 24) LostFilm (oбновляемая) скачать через торрент бесплатно

    Опубликовал: Админ | Дата: 13-04-2015, 04:00 | Просмотров: 1092

    Производство: США
    Жанр: драма, криминал, детектив
    Режиссер: Джон Полсон, Эндрю Бернштейн, Сет Манн

    Актеры
    Джонни Ли Миллер, Люси Лью, Эйдан Куинн, Джон Майкл Хилл, Натали Дормер, Ато Эссонда, Линда Эмонд, Майкл Ден Деккер, Винни Джонс, Эрик Дженсен и др.

    Описание

    Новая интерпретация классического произведения Артура Конана Дойла о Шерлоке Холмсе. Божий одуванчик, сказал кто то из толпы, к чему не понятно. Но сюжет сериала будет развиваться не по классическому сценарию, главный герой поменяет не только прописку, он переедет из Лондона в Нью-Йорк, но и эпоху, сюжет будет разворачиваться в наше время. Также зрителей ждет еще один сюрприз, теперь у Шерлока будет не помощник в лице Доктора Ватсона а помощница, роль которой досталось обворожительной Люси Лью. Элементарно - современная криминальная драма о дуэте детектива Шерлока Холмса и доктора Джоан Ватсон, который решает самые запутанные дела в полицейском департаменте Нью-Йорка.

    Продолжительность: ~00: 43: 00 серия
    Качество видео: WEB-DLRip
    Перевод: Многоголосый закадровый, профессиональный -LostFilm
    Видеокодек: XviD
    Формат: AVI
    Битрейт видео: ~1143 kb/s
    Размер кадра: 720х400 (16: 9)
    Аудио Rus: (MPEG Layer 3, 48, 0 kHz, 2 ch, 192 kb/s) - многоголосый закадровый
    Общее
    Полное имя : D: Элементарно (сезон любимого сериала 3) Elementary (2014) WEB-DLRip - LostFilmElementary.S03E01.rus.LostFilm.TV.avi
    Формат : AVI
    Формат/Информация : Audio Video Interleave
    Размер файла : 418 Мбайт
    Продолжительность : 43 м.
    Режим общего битрейта : Переменный
    Общий поток : 1343 Кбит/сек
    Программа кодирования : Nandub v1.0rc2
    Библиотека кодирования : Nandub build 1853/release
    Видео
    Идентификатор : 0
    Формат : MPEG-4 Visual
    Профиль формата : Advanced Simple@L5
    Параметр BVOP формата : Нет
    Параметр QPel формата : Нет
    Параметр GMC формата : Без точки перехода
    Параметр матрицы формата : Default (H.263)
    Идентификатор кодека : XVID
    Идентификатор кодека/Подсказка : XviD
    Продолжительность : 43 м.
    Битрейт : 1143 Кбит/сек
    Ширина : 720 пикселей
    Высота : 400 пикселей
    Соотношение сторон : 16: 9
    Частота кадров : 23, 976 кадра/сек
    Цветовое пространство : YUV
    Субдискретизация насыщенности : 4: 2: 0
    Битовая глубина : 8 бит
    Тип развёртки : Прогрессивная
    Метод сжатия : С потерями
    Бит/(Пиксели*Кадры) : 0.166
    Размер потока : 356 Мбайт (85%)
    Библиотека кодирования : XviD 1.2.1 (UTC 2008-12-04)
    Аудио
    Идентификатор : 1
    Формат : MPEG Audio
    Версия формата : Version 1
    Профиль формата : Layer 3
    Режим : Joint stereo
    Расширение режима : MS Stereo
    Идентификатор кодека : 55
    Идентификатор кодека/Подсказка : MP3
    Продолжительность : 43 м.
    Вид битрейта : Переменный
    Битрейт : 192 Кбит/сек
    Каналы : 2 канала
    Частота : 48, 0 КГц
    Метод сжатия : С потерями
    Размер потока : 58, 4 Мбайт (14%)
    Выравнивание : Соединение по промежуткам
    Продолжительность промежутка : 24 мс. (0, 58 видеокадр)
    Время предзагрузки промежутка : 470 мс.
    Библиотека кодирования : LAME3.97b
    Настройки программы : -m j -V 4 -q 3 -lowpass 18.6 --abr 192


    Скриншоты для ознакомления




    Онлайн видео Элементарно



    Элементарно/Elementary (2014) WEB-DLRip (сезон 3, серии 1-19 из 24) LostFilm (oбновляемая)
    загрузка...
    Рейтинг →
     (голосов: 1, оценка 3/5, голосовать можно 1 раз )

    Другие торренты по теме:

  • Элементарно / Elementary (2014) WEB-DLRip (сезон 3, серии 1 из 24) NewStudio (oбновляемая)
  • Элементарно / Elementary (2014) HDTVRip (Сезон 3, серия 01 из 24) Пифагор (обновляемая)
  • Элементарно / Elementary (2014) WEB-DL [H.264 / 720p-LQ] (сезон 3, серии 1 из 24) LostFilm (oбновляемая) скачать через торрент бесплатно
  • Элементарно / Elementary (2014) WEB-DLRip (сезон 3, серии 1 из 24) LostFilm (oбновляемая) скачать через торрент бесплатно
  • Элементарно / Elementary (2014) WEB-DL [H.264 / 720p-LQ] (сезон 3, серии 1-4 из 24) NewStudio (oбновляемая)
  • Нил Гейман и др. | Элементарно, Ватсон! [сборник] (2014) [FB2] скачать через торрент бесплатно
  • Элементарно / Elementary (2014) WEB-DLRip (сезон 3, серии 1-19 из 24) NewStudio (oбновляемая) скачать через торрент бесплатно
  • Элементарно / Elementary (2014) WEB-DL [H.264 / 720p-LQ] (сезон 3, серии 1-19 из 24) NewStudio (oбновляемая) скачать через торрент бесплатно


    • Комментарии (0):

      Информация

      Информация

        Посетители, находящиеся в группе Гости, не могут оставлять комментарии в данной новости.

        ↓ Меню




        ↓ Опрос

        Вы добавили сайт в закладки?
        Да
        Нет


        Top 10 за месяц (Фильмы)