.
Авторизация | Регистрация
Хочешь лучшие торренты? Добавь свой email!
Добавить

Торрент скачать бесплатно

» » Незабываемое / Помнить все / Unforgettable (2011-2012) WEB-DLRip (сезон 1, серии 1-22 из 22) (ТВ-3) скачать через торрент бесплатно




    Незабываемое / Помнить все / Unforgettable (2011-2012) WEB-DLRip (сезон 1, серии 1-22 из 22) (ТВ-3) скачать через торрент бесплатно

    Опубликовал: Админ | Дата: 13-04-2015, 04:00 | Просмотров: 166

    Производство: США
    Жанр: детектив, драма
    Режиссер: Жан Де Сегонзак, Анна Ферстер, Нильс Арден Оплев, Джон Дэвид Коулз, Питер Уэрнер, Оз Скотт

    Актеры
    Поппи Монтгомери, Дилан Уолш, Майкл Гэстон, Кевин О. Ранкин, Дая Вайдя, Майкл Дж. Бёрг, Элизер Мейер, Мелоди Уайсс, Роксанна Хоуп, Шоун Майкл и др.

    Описание

    Детектив Кэрри Уэллс обладает уникальной способностью помнить все, что когда-либо с ней происходило. Благодаря этому дару, она прекрасно выполняет свою работу, находясь на страже правопорядка. Но для личной жизни сверхпамять - это настоящее проклятие. Кэрри помнит каждое мгновенье, каждую секунду своей жизни, кроме дня, когда была убита её сестра.

    Продолжительность: ~ 00: 43: 00 серия
    Качество видео: WEB-DLRip
    Перевод: дублированный -ТВ3
    Формат: AVI
    Видеокодек: XviD
    Битрейт видео: ~1357 Kbps
    Размер кадра: 720x400 (16: 9)
    Аудио rus: AC3, 48 KHz, 2 ch, 192 Kbps - дублированный
    Аудио eng: AC3, 48 KHz, 2 ch, 192 Kbps - оригинал
    Код:

    Общее
    Полное имя : H:MY UPLOADПомнить все - Незабываемое - UnforgettableUnforgettable.S01.400p TV-31x01 - Pilot (Пилот).avi
    Формат : AVI
    Формат/Информация : Audio Video Interleave
    Размер файла : 553 Мбайт
    Продолжительность : 44 м.
    Общий поток : 1756 Кбит/сек
    Название фильма : Помнить все (Незабываемое). Сезон 1/Unforgettable. Season 1 (2011)
    Программа кодирования : VirtualDubMod 1.5.10.2 (build 2540/release)
    Библиотека кодирования : VirtualDubMod build 2540/release
    Правообладатель : miha2154
    Видео
    Идентификатор : 0
    Формат : MPEG-4 Visual
    Профиль формата : Advanced Simple@L5
    Параметр BVOP формата : 1
    Параметр QPel формата : Нет
    Параметр GMC формата : Без точки перехода
    Параметр матрицы формата : Выборочная
    Идентификатор кодека : DX50
    Идентификатор кодека/Подсказка : DivX 5
    Продолжительность : 44 м.
    Битрейт : 1357 Кбит/сек
    Ширина : 720 пикселей
    Высота : 400 пикселей
    Соотношение сторон : 16:9
    Частота кадров : 23, 976 кадра/сек
    Цветовое пространство : YUV
    Субдискретизация насыщенности : 4:2:0
    Битовая глубина : 8 бит
    Тип развёртки : Прогрессивная
    Метод сжатия : С потерями
    Бит/(Пиксели*Кадры) : 0.197
    Размер потока : 428 Мбайт (77%)
    Библиотека кодирования : XviD 65
    Аудио #1
    Идентификатор : 1
    Формат : AC-3
    Формат/Информация : Audio Coding 3
    Расширение режима : CM (complete main)
    Параметр Endianness формата : Big
    Идентификатор кодека : 2000
    Продолжительность : 44 м.
    Вид битрейта : Постоянный
    Битрейт : 192 Кбит/сек
    Каналы : 2 канала
    Расположение каналов : Front: L R
    Частота : 48, 0 КГц
    Битовая глубина : 16 бит
    Метод сжатия : С потерями
    Размер потока : 60, 5 Мбайт (11%)
    Выравнивание : Разделение по промежуткам
    Продолжительность промежутка : 42 мс. Вашими молитвами, сказал кто то из толпы, к чему не понятно. (1, 00 видеокадр)
    Время предзагрузки промежутка : 500 мс.
    Заголовок : Профессиональный (полное дублирование) ТВ3
    Аудио #2
    Идентификатор : 2
    Формат : AC-3
    Формат/Информация : Audio Coding 3
    Расширение режима : CM (complete main)
    Параметр Endianness формата : Big
    Идентификатор кодека : 2000
    Продолжительность : 44 м.
    Вид битрейта : Постоянный
    Битрейт : 192 Кбит/сек
    Каналы : 2 канала
    Расположение каналов : Front: L R
    Частота : 48, 0 КГц
    Битовая глубина : 16 бит
    Метод сжатия : С потерями
    Размер потока : 60, 5 Мбайт (11%)
    Выравнивание : Разделение по промежуткам
    Продолжительность промежутка : 42 мс. (1, 00 видеокадр)
    Время предзагрузки промежутка : 500 мс.
    Заголовок : Английский


    Скриншоты для ознакомления




    Онлайн видео Незабываемое



    Незабываемое/Помнить все/Unforgettable (2011-2012) WEB-DLRip (сезон 1, серии 1-22 из 22) (ТВ-3)
    загрузка...
    Рейтинг →
     (голосов: 1, оценка 5/5, голосовать можно 1 раз )

    Другие торренты по теме:

  • Помнить всё / Незабываемое / Unforgettable (2014) WEB-DLRip (сезон 3, серии 1 из 13) SET (oбновляемая) скачать через торрент бесплатно
  • Незабываемое / Помнить все / Unforgettable (2011-2012) WEB-DL [H.264 / 720p-LQ] (сезон 1, серии 1-22 из 22) (ТВ-3) скачать через торрент бесплатно
  • Незабываемое / Помнить все / Unforgettable (2012-2013) WEB-DLRip (сезон 2, серии 1-13 из 13) (ТВ-3) скачать через торрент бесплатно
  • Незабываемое / Помнить все / Unforgettable (2012-2013) WEB-DL [H.264 / 720p-LQ] (сезон 2, серии 1-13 из 13) (ТВ-3) скачать через торрент бесплатно
  • Незабываемое / Помнить все / Unforgettable (2012-2013) WEB-DL [H.264 / 1080p-LQ] (сезон 2, серии 1-6, 8-13 из 13) (ТВ-3) (обновляемая) скачать через торрент бесплатно
  • Незабываемое / Помнить все / Unforgettable (2011-2014) WEB-DLRip [H.264] (Сезон 1-3, серии 1-48 из 48) ТВ-3 [MP4|720x400] скачать через торрент бесплатно
  • Помнить всё / Незабываемое / Unforgettable (2015) HDTVRip (сезон 4, серии 1-9 из 13) Gears Media (обновляемая)
  • Незабываемое / Unforgettable (1996) BDRip [H.264]


    • Комментарии (0):

      Информация

      Информация

        Посетители, находящиеся в группе Гости, не могут оставлять комментарии в данной новости.

        ↓ Меню




        ↓ Опрос

        Вы добавили сайт в закладки?
        Да
        Нет


        Top 10 за месяц (Фильмы)