.
Авторизация | Регистрация
Хочешь лучшие торренты? Добавь свой email!
Добавить

Торрент скачать бесплатно

» » Незабываемое / Помнить все / Unforgettable (2012-2013) WEB-DL [H.264 / 1080p-LQ] (сезон 2, серии 1-6, 8-13 из 13) (ТВ-3) (обновляемая) скачать через торрент бесплатно




    Незабываемое / Помнить все / Unforgettable (2012-2013) WEB-DL [H.264 / 1080p-LQ] (сезон 2, серии 1-6, 8-13 из 13) (ТВ-3) (обновляемая) скачать через торрент бесплатно

    Опубликовал: Админ | Дата: 13-04-2015, 04:00 | Просмотров: 160

    Производство: США
    Жанр: детектив, драма
    Режиссер: Жан Де Сегонзак, Анна Ферстер, Нильс Арден Оплев, Джон Дэвид Коулз, Питер Уэрнер, Оз Скотт

    Актеры
    Поппи Монтгомери, Дилан Уолш, Майкл Гэстон, Кевин О. Ранкин, Дая Вайдя, Майкл Дж. Бёрг, Элизер Мейер, Мелоди Уайсс, Роксанна Хоуп, Шоун Майкл и др.

    Описание
    Детектив Кэрри Уэллс обладает уникальной способностью помнить все, что когда-либо с ней происходило. О таком странном сюжете не догадывалась даже Земфира. Благодаря этому дару, она прекрасно выполняет свою работу, находясь на страже правопорядка. Но для личной жизни сверхпамять - это настоящее проклятие. Самое интересное в это истории, что об этом Гендельф ничего не знал. Кэрри помнит каждое мгновенье, каждую секунду своей жизни, кроме дня, когда была убита её сестра.

    Продолжительность: ~ 00: 43: 00 серия
    Качество: WEB-DL 1080p
    Перевод: дублированный -ТВ3
    Формат: MKV
    Видеокодек: MPEG-4 AVC
    Битрейт видео: ~4800 kbps
    Размер кадра: 1920x1080 (16: 9)
    Аудио rus: AC3, 48 KHz, 2 ch, 192 Kbps - дублированный
    Аудио eng: AC3, 48 KHz, 6 ch, 384 Kbps - оригинал
    Код:

    Общее
    Уникальный идентификатор : 194518180182519759459491610073066160017 (0x9256D6BB362CE73AA0ED00A540C8BF91)
    Полное имя : H:MY UPLOADПомнить все - Незабываемое - UnforgettableUnforgettable.S02.1080p TV-31. Bigtime (Большое время).mkv
    Формат : Matroska
    Версия формата : Version 4/Version 2
    Размер файла : 1, 67 Гбайт
    Продолжительность : 43 м.
    Общий поток : 5502 Кбит/сек
    Название фильма : 01. Bigtime/Большое время
    Дата кодирования : UTC 2015-04-08 11:57:57
    Программа кодирования : mkvmerge v6.3.0 (\'You can\'t stop me!\') built on Jul 19 2013 16:27:38
    Библиотека кодирования : libebml v1.3.0 + libmatroska v1.4.1
    Видео
    Идентификатор : 1
    Формат : AVC
    Формат/Информация : Advanced Video Codec
    Профиль формата :High@L4.0
    Параметр CABAC формата : Да
    Параметр ReFrames формата : 4 кадра
    Идентификатор кодека : V_MPEG4/ISO/AVC
    Продолжительность : 43 м.
    Битрейт : 4817 Кбит/сек
    Ширина : 1920 пикселей
    Высота : 1080 пикселей
    Соотношение сторон : 16:9
    Режим частоты кадров : Постоянный
    Частота кадров : 23, 976 кадра/сек
    Цветовое пространство : YUV
    Субдискретизация насыщенности : 4:2:0
    Битовая глубина : 8 бит
    Тип развёртки : Прогрессивная
    Бит/(Пиксели*Кадры) : 0.097
    Размер потока : 1, 46 Гбайт (88%)
    Заголовок : 01. Bigtime/Большое время
    Язык : English
    Default : Да
    Forced : Нет
    Основные цвета : BT.709
    Характеристики трансфера : BT.709
    Коэффициенты матрицы : BT.709
    Аудио #1
    Идентификатор : 2
    Формат : AC-3
    Формат/Информация : Audio Coding 3
    Расширение режима : CM (complete main)
    Параметр Endianness формата : Big
    Идентификатор кодека : A_AC3
    Продолжительность : 43 м.
    Вид битрейта : Постоянный
    Битрейт : 192 Кбит/сек
    Каналы : 2 канала
    Расположение каналов : Front: L R
    Частота : 48, 0 КГц
    Битовая глубина : 16 бит
    Метод сжатия : С потерями
    Размер потока : 59, 8 Мбайт (3%)
    Заголовок : Dub TV-3
    Язык : Russian
    Default : Да
    Forced : Да
    Аудио #2
    Идентификатор : 3
    Формат : AC-3
    Формат/Информация : Audio Coding 3
    Расширение режима : CM (complete main)
    Параметр Endianness формата : Big
    Идентификатор кодека : A_AC3
    Продолжительность : 43 м.
    Вид битрейта : Постоянный
    Битрейт : 384 Кбит/сек
    Каналы : 6 каналов
    Расположение каналов : Front: L C R, Side: L R, LFE
    Частота : 48, 0 КГц
    Битовая глубина : 16 бит
    Метод сжатия : С потерями
    Размер потока : 120 Мбайт (7%)
    Заголовок : Original DD5.1
    Язык : English
    Default : Нет
    Forced : Нет
    miha2154 - за звуковую дорожку


    Скриншоты для ознакомления




    Онлайн видео Незабываемое



    Незабываемое/Помнить все/Unforgettable (2012-2013) WEB-DL [H.264/1080p-LQ] (сезон 2, серии 1-6, 8-13 из 13) (ТВ-3) (обновляемая)
    загрузка...
    Рейтинг →
     (голосов: 1, оценка 5/5, голосовать можно 1 раз )

    Другие торренты по теме:

  • Помнить всё / Незабываемое / Unforgettable (2014) WEB-DLRip (сезон 3, серии 1 из 13) SET (oбновляемая) скачать через торрент бесплатно
  • Незабываемое / Помнить все / Unforgettable (2011-2012) WEB-DL [H.264 / 720p-LQ] (сезон 1, серии 1-22 из 22) (ТВ-3) скачать через торрент бесплатно
  • Незабываемое / Помнить все / Unforgettable (2012-2013) WEB-DLRip (сезон 2, серии 1-13 из 13) (ТВ-3) скачать через торрент бесплатно
  • Незабываемое / Помнить все / Unforgettable (2012-2013) WEB-DL [H.264 / 720p-LQ] (сезон 2, серии 1-13 из 13) (ТВ-3) скачать через торрент бесплатно
  • Незабываемое / Помнить все / Unforgettable (2011-2012) WEB-DLRip (сезон 1, серии 1-22 из 22) (ТВ-3) скачать через торрент бесплатно
  • Незабываемое / Помнить все / Unforgettable (2011-2014) WEB-DLRip [H.264] (Сезон 1-3, серии 1-48 из 48) ТВ-3 [MP4|720x400] скачать через торрент бесплатно
  • Помнить всё / Незабываемое / Unforgettable (2015) HDTVRip (сезон 4, серии 1-9 из 13) Gears Media (обновляемая)
  • Незабываемое / Unforgettable (1996) BDRip [H.264]


    • Комментарии (0):

      Информация

      Информация

        Посетители, находящиеся в группе Гости, не могут оставлять комментарии в данной новости.

        ↓ Меню




        ↓ Опрос

        Вы добавили сайт в закладки?
        Да
        Нет


        Top 10 за месяц (Фильмы)