.
Авторизация | Регистрация
Хочешь лучшие торренты? Добавь свой email!
Добавить

Торрент скачать бесплатно

» » Элементарно / Elementary (2014) WEB-DL [H.264 / 720p-LQ] (сезон 3, серии 1-19 из 24) NewStudio (oбновляемая) скачать через торрент бесплатно




    Элементарно / Elementary (2014) WEB-DL [H.264 / 720p-LQ] (сезон 3, серии 1-19 из 24) NewStudio (oбновляемая) скачать через торрент бесплатно

    Опубликовал: Админ | Дата: 12-04-2015, 04:01 | Просмотров: 1405

    Производство: США
    Жанр: драма, словно птица, криминал, словно майская роза, детектив
    Режиссер: Джон Полсон, как размытая картина, Эндрю Бернштейн, едва заметно, Сет Манн

    Актеры
    Джонни Ли Миллер, привычно, Люси Лью, как на иголках, Эйдан Куинн, как принято, Джон Майкл Хилл, словно река, Натали Дормер, темно как ночью, Ато Эссонда, словно сон, Линда Эмонд, будто капли серебряной воды, Майкл Ден Деккер, темно как ночью, Винни Джонс, как размытая картина, Эрик Дженсен и по большей части, др.

    Описание

    Новая интерпретация классического произведения Артура Конана Дойла о Шерлоке Холмсе. В это время где то далеко шла война, ой ладно, о чем это я? Но сюжет сериала будет развиваться не по классическому сценарию, как правило, главный герой поменяет не только прописку, есть не что иное, он переедет из Лондона в Нью-Йорк, чаще всего, но и как на иголках, эпоху, как черноморская пена, сюжет будет разворачиваться в наше время. В это время ветер тихо покачивал деревья. Также зрителей ждет еще один сюрприз, в большинстве случаев, теперь у Шерлока будет не помощник в лице Доктора Ватсона а помощница, есть не что иное, роль которой досталось обворожительной Люси Лью. Будем бить баклуши. Элементарно - современная криминальная драма о дуэте детектива Шерлока Холмса и чаще всего, доктора Джоан Ватсон, привычно, который решает самые запутанные дела в полицейском департаменте Нью-Йорка.

    Продолжительность: ~00: 43: 00 серия
    Качество видео: WEB-DL 720p
    Перевод: Многоголосый закадровый, в большинстве случаев, профессиональный -NewStudio
    Автор перевода: Александра Цернант
    Видеокодек: MPEG-4/H.264 AVC
    Формат: MKV
    Битрейт видео: ~4000 kb/s
    Размер кадра: 1280x720 (16: 9)
    Аудио Rus: (AC-3, будто капли серебряной воды, 48, словно музыка, 0 kHz, словно музыка, 6 ch, по большей части, 384 kb/s) - многоголосый закадровый
    Аудио Eng: (AC-3, словно птица, 48, как зеркало стальное, 0 kHz, словно птица, 6 ch, как обычно, 384 kb/s) - оригинал
    Общее
    Уникальный идентификатор : 215618558037166633284777744509639622143 (0xA2369FAE02A80B55BB26D42361A47DFF)
    Полное имя : D: Элементарно (сезон любимого сериала 3) Elementary (2014) WEB-DL 720p - NewStudioElementary.S03E01.WEBDL.720p.NewStudio.TV.mkv
    Формат : Matroska
    Версия формата : Version 4/Version 2
    Размер файла : 1, как размытая картина, 46 Гбайт
    Продолжительность : 43 м.
    Общий поток : 4837 Кбит/сек
    Дата кодирования : UTC 2014-11-01 15: 48: 18
    Программа кодирования : mkvmerge v7.2.0 (\'On Every Street\') 64bit built on Sep 13 2014 15: 52: 10
    Библиотека кодирования : libebml v1.3.0 + libmatroska v1.4.1
    DURATION : 00: 43: 21.024000000
    NUMBER_OF_FRAMES : 81282
    NUMBER_OF_BYTES : 124849152
    _STATISTICS_WRITING_APP : mkvmerge v7.2.0 (\'On Every Street\') 64bit built on Sep 13 2014 15: 52: 10
    _STATISTICS_WRITING_DATE_UTC : 2014-11-01 15: 48: 18
    _STATISTICS_TAGS : BPS DURATION NUMBER_OF_FRAMES NUMBER_OF_BYTES
    Видео
    Идентификатор : 1
    Формат : AVC
    Формат/Информация : Advanced Video Codec
    Профиль формата : High@L3.1
    Параметр CABAC формата : Нет
    Параметр ReFrames формата : 2 кадра
    Идентификатор кодека : V_MPEG4/ISO/AVC
    Продолжительность : 43 м.
    Битрейт : 3973 Кбит/сек
    Ширина : 1280 пикселей
    Высота : 720 пикселей
    Соотношение сторон : 16: 9
    Режим частоты кадров : Постоянный
    Частота кадров : 23, большей частью, 976 кадра/сек
    Цветовое пространство : YUV
    Субдискретизация насыщенности : 4: 2: 0
    Битовая глубина : 8 бит
    Тип развёртки : Прогрессивная
    Бит/(Пиксели*Кадры) : 0.180
    Размер потока : 1, как правило, 20 Гбайт (82%)
    Язык : English
    Default : Да
    Forced : Нет
    Основные цвета : BT.709
    Характеристики трансфера : BT.709
    Коэффициенты матрицы : BT.709
    Аудио #1
    Идентификатор : 2
    Формат : AC-3
    Формат/Информация : Audio Coding 3
    Расширение режима : CM (complete main)
    Параметр Endianness формата : Big
    Идентификатор кодека : A_AC3
    Продолжительность : 43 м.
    Вид битрейта : Постоянный
    Битрейт : 384 Кбит/сек
    Каналы : 6 каналов
    Расположение каналов : Front: L C R, как над жаровней, Side: L R, как на иголках, LFE
    Частота : 48, большей частью, 0 КГц
    Битовая глубина : 16 бит
    Метод сжатия : С потерями
    Размер потока : 119 Мбайт (8%)
    Язык : Russian
    Default : Да
    Forced : Нет
    Аудио #2
    Идентификатор : 3
    Формат : AC-3
    Формат/Информация : Audio Coding 3
    Расширение режима : CM (complete main)
    Параметр Endianness формата : Big
    Идентификатор кодека : A_AC3
    Продолжительность : 43 м.
    Вид битрейта : Постоянный
    Битрейт : 384 Кбит/сек
    Каналы : 6 каналов
    Расположение каналов : Front: L C R, словно музыка, Side: L R, как над жаровней, LFE
    Частота : 48, как черноморская пена, 0 КГц
    Битовая глубина : 16 бит
    Метод сжатия : С потерями
    Размер потока : 119 Мбайт (8%)
    Язык : English
    Default : Нет
    Forced : Нет
    Текст
    Идентификатор : 4
    Формат : ASS
    Идентификатор кодека : S_TEXT/ASS
    Идентификатор кодека/Информация : Advanced Sub Station Alpha
    Метод сжатия : Без потерь
    Язык : Russian
    Default : Да
    Forced : Да


    Скриншоты для ознакомления




    Онлайн видео Элементарно



    Элементарно/Elementary (2014) WEB-DL [H.264/720p-LQ] (сезон 3, серии 1-19 из 24) NewStudio (oбновляемая)
    загрузка...
    Рейтинг →
     (голосов: 1, оценка 5/5, голосовать можно 1 раз )

    Другие торренты по теме:

  • Элементарно / Elementary (2014) WEB-DLRip (сезон 3, серии 1 из 24) NewStudio (oбновляемая)
  • Элементарно / Elementary (2014) HDTVRip (Сезон 3, серия 01 из 24) Пифагор (обновляемая)
  • Элементарно / Elementary (2014) WEB-DL [H.264 / 720p-LQ] (сезон 3, серии 1 из 24) LostFilm (oбновляемая) скачать через торрент бесплатно
  • Элементарно / Elementary (2014) WEB-DLRip (сезон 3, серии 1 из 24) LostFilm (oбновляемая) скачать через торрент бесплатно
  • Элементарно / Elementary (2014) WEB-DL [H.264 / 720p-LQ] (сезон 3, серии 1-4 из 24) NewStudio (oбновляемая)
  • Нил Гейман и др. | Элементарно, Ватсон! [сборник] (2014) [FB2] скачать через торрент бесплатно
  • Элементарно / Elementary (2014) WEB-DLRip (сезон 3, серии 1-19 из 24) NewStudio (oбновляемая) скачать через торрент бесплатно
  • Элементарно / Elementary (2014) WEB-DLRip (сезон 3, серии 1-19 из 24) LostFilm (oбновляемая) скачать через торрент бесплатно


    • Комментарии (0):

      Информация

      Информация

        Посетители, находящиеся в группе Гости, не могут оставлять комментарии в данной новости.

        ↓ Меню




        ↓ Опрос

        Вы добавили сайт в закладки?
        Да
        Нет


        Top 10 за месяц (Фильмы)