.
Авторизация | Регистрация
Хочешь лучшие торренты? Добавь свой email!
Добавить

Торрент скачать бесплатно

» » Сорвиголова / Daredevil (2015) WEBRip [H.264 / 1080p-LQ] (сезон 1, серии 1-3 из 13) NewStudio (обновляемая) скачать через торрент бесплатно




    Сорвиголова / Daredevil (2015) WEBRip [H.264 / 1080p-LQ] (сезон 1, серии 1-3 из 13) NewStudio (обновляемая) скачать через торрент бесплатно

    Опубликовал: Админ | Дата: 12-04-2015, 04:00 | Просмотров: 115

    Производство: США, ABC Television Studio, Marvel Entertainment, Walt Disney Company
    Жанр: фантастика, боевик
    Режиссер: Фил Абрахам, Стивен С. О таком странном сюжете не догадывалась даже Волочкова. ДеНайт, Кен Джиротти

    Актеры
    Чарли Кокс, Дебора Энн Уолл, Элден Хенсон, Розарио Доусон, Винсент Д’Онофрио, Айелет Зурер и др.

    Описание

    Слепой адвокат обнаруживает, что у него невероятно усилены все остальные чувства. Осознав это, он в костюме супергероя отправляется на борьбу с преступностью…

    Дата мировой премьеры: 10 апреля 2015
    Продолжительность: ~00: 53: 00 серия
    Качество видео: WEBRip 1080p
    Перевод: Многоголосый закадровый, профессиональный -NewStudio
    Автор перевода: Александра Цернант, MartinaG, Юрий Башенкер, Алексей Корягин
    Видеокодек: MPEG-4/H.264 AVC
    Формат: MKV
    Битрейт видео: ~9100 kb/s
    Размер кадра: 1920x1080 (16: 9)
    Аудио Rus: (AC-3, 48, 0 kHz, 6 ch, 384 kb/s) - многоголосый закадровый
    Аудио Eng: (AC-3, 48, 0 kHz, 6 ch, 640 kb/s) - оригинал
    Общее
    Уникальный идентификатор : 111481095143893087979406594835522301854 (0x53DE7A5A1577D7EA2BDC0DB9039CAF9E)
    Полное имя : D: Сорвиголова (сезон любимого сериала 1) Daredevil (2015) WEBRip 1080p - NewStudioMarvels.Daredevil.s01e01.WEBRip.1080p.NewStudio.TV.mkv
    Формат : Matroska
    Версия формата : Version 4/Version 2
    Размер файла : 3, 83 Гбайт
    Продолжительность : 52 м.
    Общий поток : 10, 4 Мбит/сек
    Дата кодирования : UTC 2015-04-11 01: 42: 58
    Программа кодирования : mkvmerge v7.4.0 (\'Circles\') 64bit
    Библиотека кодирования : libebml v1.3.0 + libmatroska v1.4.1
    _STATISTICS_WRITING_APP : mkvmerge v7.4.0 (\'Circles\') 64bit
    _STATISTICS_WRITING_DATE_UTC : 2015-04-11 01: 42: 58
    _STATISTICS_TAGS : BPS DURATION NUMBER_OF_FRAMES NUMBER_OF_BYTES
    DURATION : 00: 52: 47.072000000
    NUMBER_OF_FRAMES : 98971
    NUMBER_OF_BYTES : 152019456
    Видео
    Идентификатор : 1
    Формат : AVC
    Формат/Информация : Advanced Video Codec
    Профиль формата : High@L4.1
    Параметр CABAC формата : Да
    Параметр ReFrames формата : 4 кадра
    Идентификатор кодека : V_MPEG4/ISO/AVC
    Продолжительность : 52 м.
    Битрейт : 9144 Кбит/сек
    Ширина : 1920 пикселей
    Высота : 1080 пикселей
    Соотношение сторон : 16: 9
    Режим частоты кадров : Постоянный
    Частота кадров : 23, 976 кадра/сек
    Цветовое пространство : YUV
    Субдискретизация насыщенности : 4: 2: 0
    Битовая глубина : 8 бит
    Тип развёртки : Прогрессивная
    Бит/(Пиксели*Кадры) : 0.184
    Размер потока : 3, 38 Гбайт (88%)
    Библиотека кодирования : x264 core 144 r2525 40bb568
    Настройки программы : cabac=1/ref=4/deblock=1: -3: -3/analyse=0x3: 0x133/me=umh/subme=10/psy=1/psy_rd=1.00: 0.00/mixed_ref=1/me_range=48/chroma_me=1/trellis=2/8x8dct=1/cqm=0/deadzone=21, 11/fast_pskip=0/chroma_qp_offset=-2/threads=12/lookahead_threads=2/sliced_threads=0/nr=0/decimate=0/interlaced=0/bluray_compat=0/constrained_intra=0/bframes=7/b_pyramid=2/b_adapt=2/b_bias=0/direct=3/weightb=1/open_gop=0/weightp=2/keyint=250/keyint_min=24/scenecut=40/intra_refresh=0/rc_lookahead=150/rc=crf/mbtree=0/crf=18.0/qcomp=0.75/qpmin=0/qpmax=69/qpstep=4/vbv_maxrate=62500/vbv_bufsize=78125/crf_max=0.0/nal_hrd=none/filler=0/ip_ratio=1.40/pb_ratio=1.30/aq=1: 0.70
    Язык : English
    Default : Да
    Forced : Нет
    _STATISTICS_WRITING_APP : mkvmerge v7.4.0 (\'Circles\') 64bit
    _STATISTICS_WRITING_DATE_UTC : 2015-04-11 01: 42: 58
    _STATISTICS_TAGS : BPS DURATION NUMBER_OF_FRAMES NUMBER_OF_BYTES
    DURATION : 00: 52: 50.960000000
    NUMBER_OF_FRAMES : 76027
    NUMBER_OF_BYTES : 3705744902
    Аудио #1
    Идентификатор : 2
    Формат : AC-3
    Формат/Информация : Audio Coding 3
    Расширение режима : CM (complete main)
    Параметр Endianness формата : Big
    Идентификатор кодека : A_AC3
    Продолжительность : 52 м.
    Вид битрейта : Постоянный
    Битрейт : 384 Кбит/сек
    Каналы : 6 каналов
    Расположение каналов : Front: L C R, Side: L R, LFE
    Частота : 48, 0 КГц
    Битовая глубина : 16 бит
    Метод сжатия : С потерями
    Размер потока : 145 Мбайт (4%)
    Заголовок : NewStudio.TV
    Язык : Russian
    Default : Да
    Forced : Нет
    Аудио #2
    Идентификатор : 3
    Формат : AC-3
    Формат/Информация : Audio Coding 3
    Расширение режима : CM (complete main)
    Параметр Endianness формата : Big
    Идентификатор кодека : A_AC3
    Продолжительность : 52 м.
    Вид битрейта : Постоянный
    Битрейт : 640 Кбит/сек
    Каналы : 6 каналов
    Расположение каналов : Front: L C R, Side: L R, LFE
    Частота : 48, 0 КГц
    Битовая глубина : 16 бит
    Метод сжатия : С потерями
    Размер потока : 242 Мбайт (6%)
    Язык : English
    Default : Нет
    Forced : Нет


    Скриншоты для ознакомления




    Онлайн видео Сорвиголова



    Сорвиголова/Daredevil (2015) WEBRip [H.264/1080p-LQ] (сезон 1, серии 1-3 из 13) NewStudio (обновляемая)
    загрузка...
    Рейтинг →
     (голосов: 1, оценка 4/5, голосовать можно 1 раз )

    Другие торренты по теме:

  • Сорвиголова / Daredevil (2015) WEBRip (сезон 1, серии 1-2 из 13) BaibaKo (обновляемая) скачать через торрент бесплатно
  • Сорвиголова / Daredevil (2015) WEBRip (сезон 1, серии 1 из 13) NewStudio (обновляемая) скачать через торрент бесплатно
  • Сорвиголова / Daredevil (2015) WEBRip [H.264 / 720p-LQ] (сезон 1, серии 1 из 13) NewStudio (обновляемая) скачать через торрент бесплатно
  • Сорвиголова / Daredevil (2015) WEBRip [H.264 / 1080p-LQ] (сезон 1, серии 1-3 из 13) (BaibaKo) (обновляемая) скачать через торрент бесплатно
  • Сорвиголова / Daredevil (2015) WEBRip [H.264] (сезон 1, серии 1-5 из 13) NewStudio (обновляемая) скачать через торрент бесплатно
  • John Paesano - Сорвиголова / Daredevil (2015) [AAC|WEB-DL|256 кб / с]<Score> скачать через торрент бесплатно
  • Сорвиголова / Daredevil (2015) WEBRip (сезон 1, серии 1 из 13) LostFilm (обновляемая) скачать через торрент бесплатно
  • Сорвиголова / Daredevil (2015) WEBRip [H.264 / 1080p-LQ] (сезон 1, серии 1-09 из 13) LostFilm (обновляемая) скачать через торрент бесплатно


    • Комментарии (0):

      Информация

      Информация

        Посетители, находящиеся в группе Гости, не могут оставлять комментарии в данной новости.

        ↓ Меню




        ↓ Опрос

        Вы добавили сайт в закладки?
        Да
        Нет


        Top 10 за месяц (Фильмы)