.
Авторизация | Регистрация
Хочешь лучшие торренты? Добавь свой email!
Добавить

Торрент скачать бесплатно

» » Король-рыбак / The Fisher King (1991) BDRip [H.264 / 720p] скачать через торрент бесплатно




    Король-рыбак / The Fisher King (1991) BDRip [H.264 / 720p] скачать через торрент бесплатно

    Опубликовал: Админ | Дата: 12-04-2015, 04:00 | Просмотров: 128

    Производство: США, TriStar Pictures
    Жанр: Комедия, Драма
    Режиссер: Терри Гиллиам

    Актеры
    Джефф Бриджес, Робин Уильямс, Мерседес Рул, Аманда Пламмер, Дэвид Хайд Пирс, Адам Брайант, Пол Дж. Ломбарди, Тед Росс

    Описание

    Сюжет фильма построен вокруг легенды о Короле-рыбаке, эпизоде из цикла легенд о короле Артуре.
    Радиоведущий Джек имеет собственное ток-шоу, он прожжённый циник, исключительно успешен, живёт на широкую ногу, его карьера идёт в гору и ему даже предлагают роль в телевизионном сериале. Ему постоянно названивает один и тот же парень, который на этот раз решил поделиться своей маленькой радостью: он попал в кафе, где собираются мажоры-яппи. Джек, полный ядовитого сарказма, объясняет этому парню, что тут в общем-то гордиться нечем, а неплохо бы просто взять и пристрелить всех этих позёров. Тот говорит окей, берёт дробовик, отправляется в то самое кафе и убивает семерых посетителей, а потом и себя самого. После этого случая карьера Джека рушится, сам он впадает в глубокую депрессию…

    Продолжительность: 02: 17: 41
    Качество видео: BDRip
    Перевод: Дублированный, многоголосый закадровый (2-е дорожки), одноголосый закадровый, двухголосый закадровый (украинский), оригинальная дорожка (английский)
    Язык субтитров: Русский (3-и вида), английский
    Вид субтитров: Вшитые отключаемые
    Видеокодек: AVC/H.264
    Битрейт видео: ~4172 kbps
    Размер кадра: 1280x696
    Аудио#1: AC3, 48 kHz, 2.0, 192 kbps (дублированный) | Варус Видео
    Аудио#2: AC3, 48 kHz, 2.0, 192 kbps (R5 Видеосервис)
    Аудио#3: AC3, 48 kHz, 2.0, 192 kbps (MVO)
    Аудио#4: AC3, 48 kHz, 2.0, 192 kbps (AVO Михалёв)
    Аудио#5: AC3, 48 kHz, 2.0, 192 kbps (UKR MVO Так Треба Продакшн)
    Аудио#6: AC3, 48 kHz, 5.1, 448 kbps (ENG Оригинал)
    Главы: есть
    Код:

    Общее
    Уникальный идентификатор : 232822988204570765922517068742234003078 (0xAF281393B37B2EE4A76E70E78D98D686)
    Полное имя : K:-Робин УильямсКороль-рыбак_The Fisher KingКороль рыбак_The Fisher King.1991.mkv
    Формат : Matroska
    Версия формата : Version 2
    Размер файла : 5, 37 Гбайт
    Продолжительность : 2 ч. 17 м.
    Общий поток : 5579 Кбит/сек
    Название фильма : Release for Topmost
    Дата кодирования : UTC 2015-04-07 12:28:56
    Программа кодирования : mkvmerge v6.2.0 (\'Promised Land\') built on Apr 28 2013 12:22:01
    Библиотека кодирования : libebml v1.3.0 + libmatroska v1.4.0
    Видео
    Идентификатор : 1
    Формат : AVC
    Формат/Информация : Advanced Video Codec
    Профиль формата :High@L4.1
    Параметр CABAC формата : Да
    Параметр ReFrames формата : 5 кадров
    Идентификатор кодека : V_MPEG4/ISO/AVC
    Продолжительность : 2 ч. 17 м.
    Битрейт : 4172 Кбит/сек
    Ширина : 1280 пикселей
    Высота : 696 пикселей
    Соотношение сторон : 1, 85:1
    Режим частоты кадров : Постоянный
    Частота кадров : 23, 976 кадра/сек
    Цветовое пространство : YUV
    Субдискретизация насыщенности : 4:2:0
    Битовая глубина : 8 бит
    Тип развёртки : Прогрессивная
    Бит/(Пиксели*Кадры) : 0.195
    Размер потока : 3, 90 Гбайт (73%)
    Заголовок : The Fisher King (1991)
    Библиотека кодирования : x264 core 119 r2106 07efeb4
    Настройки программы : cabac=1/ref=5/deblock=1:0:0/analyse=0x3:0x113/me=umh/subme=8/psy=1/psy_rd=1.00:0.00/mixed_ref=1/me_range=16/chroma_me=1/trellis=1/8x8dct=1/cqm=0/deadzone=21, 11/fast_pskip=1/chroma_qp_offset=-2/threads=12/sliced_threads=0/nr=0/decimate=1/interlaced=0/bluray_compat=0/constrained_intra=0/bframes=3/b_pyramid=2/b_adapt=2/b_bias=0/direct=3/weightb=1/open_gop=0/weightp=2/keyint=240/keyint_min=24/scenecut=40/intra_refresh=0/rc_lookahead=50/rc=2pass/mbtree=1/bitrate=4172/ratetol=1.0/qcomp=0.60/qpmin=0/qpmax=69/qpstep=4/cplxblur=20.0/qblur=0.5/ip_ratio=1.40/aq=1:1.00
    Язык : English
    Default : Да
    Forced : Нет
    Аудио #1
    Идентификатор : 2
    Формат : AC-3
    Формат/Информация : Audio Coding 3
    Расширение режима : CM (complete main)
    Параметр Endianness формата : Big
    Идентификатор кодека : A_AC3
    Продолжительность : 2 ч. 17 м.
    Вид битрейта : Постоянный
    Битрейт : 192 Кбит/сек
    Каналы : 2 канала
    Расположение каналов : Front: L R
    Частота : 48, 0 КГц
    Битовая глубина : 16 бит
    Метод сжатия : С потерями
    Размер потока : 189 Мбайт (3%)
    Заголовок : Дублированный (Варус Видео)
    Язык : Russian
    Default : Нет
    Forced : Нет
    Аудио #2
    Идентификатор : 3
    Формат : AC-3
    Формат/Информация : Audio Coding 3
    Расширение режима : CM (complete main)
    Параметр Endianness формата : Big
    Идентификатор кодека : A_AC3
    Продолжительность : 2 ч. 17 м.
    Вид битрейта : Постоянный
    Битрейт : 192 Кбит/сек
    Каналы : 2 канала
    Расположение каналов : Front: L R
    Частота : 48, 0 КГц
    Битовая глубина : 16 бит
    Метод сжатия : С потерями
    Размер потока : 189 Мбайт (3%)
    Заголовок : Многоголосый закадровый R5 (Видеосервис)
    Язык : Russian
    Default : Да
    Forced : Нет
    Аудио #3
    Идентификатор : 4
    Формат : AC-3
    Формат/Информация : Audio Coding 3
    Расширение режима : CM (complete main)
    Параметр Endianness формата : Big
    Идентификатор кодека : A_AC3
    Продолжительность : 2 ч. 17 м.
    Вид битрейта : Постоянный
    Битрейт : 192 Кбит/сек
    Каналы : 2 канала
    Расположение каналов : Front: L R
    Частота : 48, 0 КГц
    Битовая глубина : 16 бит
    Метод сжатия : С потерями
    Размер потока : 189 Мбайт (3%)
    Заголовок : Многоголосый закадровый (MVO)
    Язык : Russian
    Default : Нет
    Forced : Нет
    Аудио #4
    Идентификатор : 5
    Формат : AC-3
    Формат/Информация : Audio Coding 3
    Расширение режима : CM (complete main)
    Параметр Endianness формата : Big
    Идентификатор кодека : A_AC3
    Продолжительность : 2 ч. О таком странном сюжете не догадывалась даже Бейонсе. 17 м.
    Вид битрейта : Постоянный
    Битрейт : 192 Кбит/сек
    Каналы : 2 канала
    Расположение каналов : Front: L R
    Частота : 48, 0 КГц
    Битовая глубина : 16 бит
    Метод сжатия : С потерями
    Размер потока : 189 Мбайт (3%)
    Заголовок : Авторский (Михалёв)
    Язык : Russian
    Default : Нет
    Forced : Нет
    Аудио #5
    Идентификатор : 6
    Формат : AC-3
    Формат/Информация : Audio Coding 3
    Расширение режима : CM (complete main)
    Параметр Endianness формата : Big
    Идентификатор кодека : A_AC3
    Продолжительность : 2 ч. 17 м.
    Вид битрейта : Постоянный
    Битрейт : 192 Кбит/сек
    Каналы : 2 канала
    Расположение каналов : Front: L R
    Частота : 48, 0 КГц
    Битовая глубина : 16 бит
    Метод сжатия : С потерями
    Размер потока : 189 Мбайт (3%)
    Заголовок : Так Треба Продакшн
    Язык : Ukrainian
    Default : Нет
    Forced : Нет
    Аудио #6
    Идентификатор : 7
    Формат : AC-3
    Формат/Информация : Audio Coding 3
    Расширение режима : CM (complete main)
    Параметр Endianness формата : Big
    Идентификатор кодека : A_AC3
    Продолжительность : 2 ч. 17 м.
    Вид битрейта : Постоянный
    Битрейт : 448 Кбит/сек
    Каналы : 6 каналов
    Расположение каналов : Front: L C R, Side: L R, LFE
    Частота : 48, 0 КГц
    Битовая глубина : 16 бит
    Метод сжатия : С потерями
    Размер потока : 441 Мбайт (8%)
    Заголовок : Оригинал
    Язык : English
    Default : Нет
    Forced : Нет
    Текст #1
    Идентификатор : 8
    Формат : UTF-8
    Идентификатор кодека : S_TEXT/UTF8
    Идентификатор кодека/Информация : UTF-8 Plain Text
    Заголовок : #1
    Язык : Russian
    Default : Да
    Forced : Нет
    Текст #2
    Идентификатор : 9
    Формат : UTF-8
    Идентификатор кодека : S_TEXT/UTF8
    Идентификатор кодека/Информация : UTF-8 Plain Text
    Заголовок : #2
    Язык : Russian
    Default : Нет
    Forced : Нет
    Текст #3
    Идентификатор : 10
    Формат : UTF-8
    Идентификатор кодека : S_TEXT/UTF8
    Идентификатор кодека/Информация : UTF-8 Plain Text
    Заголовок : #3
    Язык : Russian
    Default : Нет
    Forced : Нет
    Текст #4
    Идентификатор : 11
    Формат : UTF-8
    Идентификатор кодека : S_TEXT/UTF8
    Идентификатор кодека/Информация : UTF-8 Plain Text
    Язык : English
    Default : Нет
    Forced : Нет
    Меню
    00:00:00.000 : en:00:00:00.000
    00:09:00.874 : en:00:09:00.874
    00:17:13.157 : en:00:17:13.157
    00:22:26.428 : en:00:22:26.428
    00:31:53.703 : en:00:31:53.703
    00:37:45.054 : en:00:37:45.054
    00:49:03.482 : en:00:49:03.482
    00:57:12.262 : en:00:57:12.262
    01:04:33.578 : en:01:04:33.578
    01:11:58.105 : en:01:11:58.105
    01:24:29.773 : en:01:24:29.773
    01:33:22.430 : en:01:33:22.430
    01:38:30.154 : en:01:38:30.154
    01:50:48.433 : en:01:50:48.433
    02:03:46.628 : en:02:03:46.628
    02:08:29.493 : en:02:08:29.493
    Это комичная и одновременно трагичная история о том, как наши слова и поступки могут влиять на нашу жизнь и на жизни других людей. О городских сумасшедших, которых мы встречаем на улицах ежедневно, и у каждого из которых есть своя драматичная история жизни и свои причины быть теми, кто они есть, о человеческой взаимовыручке и поиске смысла. Терри Гиллиам погружает зрителя в свой безумный и на первый взгляд вроде бы абсурдный мир фантазий, где жители Нью-Йорка танцуют в метро, а по улицам на коне скачет странный рыцарь, а с другой стороны показывая нам всю трагичность и серость нашей обычной жизни, от которой все мы пытаемся куда-нибудь сбежать.


    Скриншоты для ознакомления




    Онлайн видео Король-рыбак



    Король-рыбак/The Fisher King (1991) BDRip [H.264/720p]
    загрузка...
    Рейтинг →
     (голосов: 1, оценка 3/5, голосовать можно 1 раз )

    Другие торренты по теме:



      Комментарии (0):

      Информация

      Информация

        Посетители, находящиеся в группе Гости, не могут оставлять комментарии в данной новости.

        ↓ Меню




        ↓ Опрос

        Вы добавили сайт в закладки?
        Да
        Нет


        Top 10 за месяц (Фильмы)