.
Авторизация | Регистрация
Хочешь лучшие торренты? Добавь свой email!
Добавить

Торрент скачать бесплатно

» » Ленинград 46 (2015) HDTVRip (серии 1-24 из 32) (обновляемая) скачать через торрент бесплатно




    Ленинград 46 (2015) HDTVRip (серии 1-24 из 32) (обновляемая) скачать через торрент бесплатно

    Опубликовал: Админ | Дата: 11-04-2015, 04:00 | Просмотров: 122

    Производство: кинокомпания Триикс Медиа, Россия
    Жанр: детектив
    Режиссер: Игорь Копылов

    Актеры
    Сергей Гармаш, Евгений Миллер, Анна Табанина, Алексей Горбунов, Александр Лыков, Андрей Мерзликин, Даниил Страхов, Дмитрий Ульянов, Елена Коренева, Александра Богданова (IV), Эдуард Флёров, Пётр Зайченко, Роман Курцын, Кирилл Полухин, Евгений Леонов-Гладышев

    Описание

    1946-й год. Послевоенный Ленинград. Город, только что переживший блокаду и еще не оправившийся от голода, разрушений, смертей. И здесь ленинградская милиция ведет свою неравную войну с преступностью, накрывшей Ленинград после войны. В этой борьбе погибает начальник отдела по борьбе с бандитизмом легендарный майор Кузьмин. Перед его сотрудниками стоит непростая задача — поймать неуловимую банду Вити Музыканта — жестокого, изощренного убийцы и бандита.

    Дата российской премьеры: 23.03.2015
    Продолжительность: ~ 00: 45: 00 серия
    Качество видео: HDTVRip
    Видеокодек: Xvid
    Битрейт видео: ~1800 kbps
    Размер кадра: 720х400 (16: 9)
    Аудиокодек: AC3 2.0
    Битрейт аудио: 192 kbps
    Код:
    Общее
    Полное имя : E:DOWNLOADSЛенинград 46 (2015) HDTVRipЛенинград 46 - 01 серия.avi
    Формат : AVI
    Формат/Информация : Audio Video Interleave
    Размер файла : 657 Мбайт
    Продолжительность : 45 м.
    Общий поток : 2000 Кбит/сек
    Программа кодирования : VirtualDubMod 1.5.10.3 |www.virtualdub-fr.org|| (build 2550/release)
    Библиотека кодирования : VirtualDubMod build 2550/release
    Видео
    Идентификатор : 0
    Формат : MPEG-4 Visual
    Профиль формата : Advanced Simple@L5
    Параметр BVOP формата : 1
    Параметр QPel формата : Нет
    Параметр GMC формата : Без точки перехода
    Параметр матрицы формата : Выборочная
    Идентификатор кодека : XVID
    Идентификатор кодека/Подсказка : XviD
    Продолжительность : 45 м.
    Битрейт : 1798 Кбит/сек
    Ширина : 720 пикселей
    Высота : 400 пикселей
    Соотношение сторон : 16:9
    Частота кадров : 25, 000 кадров/сек
    Цветовое пространство : YUV
    Субдискретизация насыщенности : 4:2:0
    Битовая глубина : 8 бит
    Тип развёртки : Прогрессивная
    Метод сжатия : С потерями
    Бит/(Пиксели*Кадры) : 0.250
    Размер потока : 591 Мбайт (90%)
    Библиотека кодирования : XviD 73
    Аудио
    Идентификатор : 1
    Формат : AC-3
    Формат/Информация : Audio Coding 3
    Расширение режима : CM (complete main)
    Параметр Endianness формата : Big
    Идентификатор кодека : 2000
    Продолжительность : 45 м.
    Вид битрейта : Постоянный
    Битрейт : 192 Кбит/сек
    Каналы : 2 канала
    Расположение каналов : Front: L R
    Частота : 48, 0 КГц
    Битовая глубина : 16 бит
    Метод сжатия : С потерями
    Размер потока : 63, 1 Мбайт (10%)
    Выравнивание : Разделение по промежуткам
    Продолжительность промежутка : 40 мс. (1, 00 видеокадр)
    Время предзагрузки промежутка : 500 мс.


    Скриншоты для ознакомления




    Онлайн видео Ленинград 46 (2015) HDTVRip (серии 1



    Ленинград 46 (2015) HDTVRip (серии 1-24 из 32) (обновляемая)
    загрузка...
    Рейтинг →
     (голосов: 1, оценка 5/5, голосовать можно 1 раз )

    Другие торренты по теме:

  • Ленинград 46 (2015) HDTV [H.264 / 1080i-LQ] (серии 1-2 из 32) (обновляемая) скачать через торрент бесплатно
  • Ленинград 46 (2015) SATRip (серии 1-2 из 32) (обновляемая) скачать через торрент бесплатно
  • Ленинград 46 (2015) HDTVRip [H.264] (серии 1-8 из 32) (обновляемая) скачать через торрент бесплатно
  • Ленинград 46 (2015) DVB [H.264] (серии 1-18 из 32) (обновляемая) скачать через торрент бесплатно
  • Ленинград 46 (2015) HDTVRip [H.264 / 720p] (серии 1-24 из 32) (обновляемая) скачать через торрент бесплатно
  • Ленинград 46 (2014-2015) Web-DLRip [H.264] (серии 1-32 из 32 + Послесловие)


    • Комментарии (0):

      Информация

      Информация

        Посетители, находящиеся в группе Гости, не могут оставлять комментарии в данной новости.

        ↓ Меню




        ↓ Опрос

        Вы добавили сайт в закладки?
        Да
        Нет


        Top 10 за месяц (Фильмы)