.
Авторизация | Регистрация
Хочешь лучшие торренты? Добавь свой email!
Добавить

Торрент скачать бесплатно

» » Вечность / Forever (2014) WEB-DL [H.264 / 720p-LQ] (сезон 1, серии 1-20 из 22) NewStudio (обновляемая) скачать через торрент бесплатно




    Вечность / Forever (2014) WEB-DL [H.264 / 720p-LQ] (сезон 1, серии 1-20 из 22) NewStudio (обновляемая) скачать через торрент бесплатно

    Опубликовал: Админ | Дата: 10-04-2015, 04:00 | Просмотров: 116

    Производство: США
    Жанр: фантастика, драма
    Режиссер: Мэттью Миллер

    Актеры
    Йоан Гриффит, Лоррейн Туссен, Алана Де Ла Гарза, Донни Кешаварц, Джоэль Мур, Джадд Хёрш, Микаелла Эшли, Элисон Бартон, Джудит Лайтфут Кларк, Джессика ДиДжиованни и др.

    Описание

    У доктора Генри Моргана, звездного судебно-медицинского эксперта Нью-Йорка, есть секрет. Он изучает мертвых не только, чтобы раскрывать уголовные дела. Он это делает, чтобы раскрыть тайну, которая ускользала от него на протяжении 200 лет — причину своего бессмертия…

    Дата мировой премьеры: 22 сентября 2014
    Продолжительность: ~00: 43: 00 серия
    Качество видео: WEB-DL 720p
    Перевод: Многоголосый закадровый, профессиональный -NewStudio
    Автор перевода: Юля Мейер
    Видеокодек: MPEG-4/H.264 AVC
    Формат: MKV
    Битрейт видео: ~4000 kb/s
    Размер кадра: 1280x718 (16: 9)
    Аудио Rus: (AC-3, 48, 0 kHz, 6 ch, 384 kb/s) - многоголосый закадровый
    Аудио Eng: (AC-3, 48, 0 kHz, 6 ch, 384 kb/s) - оригинал
    Общее
    Уникальный идентификатор : 222403472582487288351933951190389229330 (0xA75159CB4A9E54BB8CEC599E79D00712)
    Полное имя : D: Вечность (сезон любимого сериала 1) Forever (2014) WEBDL 720p - NewStudioForever.2014.S01E01.WEBDL.720p.NewStudio.TV.mkv
    Формат : Matroska
    Версия формата : Version 4/Version 2
    Размер файла : 1, 47 Гбайт
    Продолжительность : 43 м.
    Общий поток : 4859 Кбит/сек
    Дата кодирования : UTC 2014-09-17 19: 12: 27
    Программа кодирования : mkvmerge v7.2.0 (\'On Every Street\') 64bit built on Sep 13 2014 15: 52: 10
    Библиотека кодирования : libebml v1.3.0 + libmatroska v1.4.1
    DURATION : 00: 43: 14.176000000
    NUMBER_OF_FRAMES : 81068
    NUMBER_OF_BYTES : 124520448
    _STATISTICS_WRITING_APP : mkvmerge v7.2.0 (\'On Every Street\') 64bit built on Sep 13 2014 15: 52: 10
    _STATISTICS_WRITING_DATE_UTC : 2014-09-17 19: 12: 27
    _STATISTICS_TAGS : BPS DURATION NUMBER_OF_FRAMES NUMBER_OF_BYTES
    Видео
    Идентификатор : 1
    Формат : AVC
    Формат/Информация : Advanced Video Codec
    Профиль формата : High@L3.1
    Параметр CABAC формата : Нет
    Параметр ReFrames формата : 2 кадра
    Идентификатор кодека : V_MPEG4/ISO/AVC
    Продолжительность : 43 м.
    Битрейт : 3995 Кбит/сек
    Ширина : 1280 пикселей
    Высота : 718 пикселей
    Соотношение сторон : 16: 9
    Режим частоты кадров : Постоянный
    Частота кадров : 23, 976 кадра/сек
    Цветовое пространство : YUV
    Субдискретизация насыщенности : 4: 2: 0
    Битовая глубина : 8 бит
    Тип развёртки : Прогрессивная
    Бит/(Пиксели*Кадры) : 0.181
    Размер потока : 1, 21 Гбайт (82%)
    Язык : English
    Default : Да
    Forced : Нет
    Основные цвета : BT.709
    Характеристики трансфера : BT.709
    Коэффициенты матрицы : BT.709
    Аудио #1
    Идентификатор : 2
    Формат : AC-3
    Формат/Информация : Audio Coding 3
    Расширение режима : CM (complete main)
    Параметр Endianness формата : Big
    Идентификатор кодека : A_AC3
    Продолжительность : 43 м.
    Вид битрейта : Постоянный
    Битрейт : 384 Кбит/сек
    Каналы : 6 каналов
    Расположение каналов : Front: L C R, Side: L R, LFE
    Частота : 48, 0 КГц
    Битовая глубина : 16 бит
    Метод сжатия : С потерями
    Размер потока : 119 Мбайт (8%)
    Язык : Russian
    Default : Да
    Forced : Нет
    Аудио #2
    Идентификатор : 3
    Формат : AC-3
    Формат/Информация : Audio Coding 3
    Расширение режима : CM (complete main)
    Параметр Endianness формата : Big
    Идентификатор кодека : A_AC3
    Продолжительность : 43 м.
    Вид битрейта : Постоянный
    Битрейт : 384 Кбит/сек
    Каналы : 6 каналов
    Расположение каналов : Front: L C R, Side: L R, LFE
    Частота : 48, 0 КГц
    Битовая глубина : 16 бит
    Метод сжатия : С потерями
    Размер потока : 119 Мбайт (8%)
    Язык : English
    Default : Нет
    Forced : Нет


    Скриншоты для ознакомления




    Онлайн видео Вечность



    Вечность/Forever (2014) WEB-DL [H.264/720p-LQ] (сезон 1, серии 1-20 из 22) NewStudio (обновляемая)
    загрузка...
    Рейтинг →
     (голосов: 1, оценка 4/5, голосовать можно 1 раз )

    Другие торренты по теме:

  • Вечность / Forever (2014) WEB-DL [H.264 / 720p-LQ] (сезон 1, серии 1 из ) NewStudio (Обновляемая)
  • Вечность / Forever (2014) HDTVRip [H.264 / 720p-LQ] (Сезон 1, серия 01-02 из 13) (AlexFilm) (обновляемая)
  • Вечность / Forever (2014) WEB-DLRip (Сезон 1, серия 01-02 из ) (BaibaKo) (обновляемая)
  • Вечность / Forever (2014) WEB-DLRip (Сезон 1, серии 1-2 из ) (NewStudio) (обновляемая)
  • Вечность / Forever (2014) WEB-DL [H.264 / 720p-LQ] (Сезон 1, серии 1-2 из ) (BaibaKo) (обновляемая)
  • Вечность (Forever) / (Сезон 1, серии 1-2 из ) BaibaKo (2014) [MP4|720x400] <WEB-DLRip H.264> скачать через торрент бесплатно
  • Вечность / Forever (2014) WEB-DLRip (Сезон 1, серии 1-2 из ) (AlexFilm) (обновляемая) скачать через торрент бесплатно
  • Вечность / Forever (2014) WEB-DLRip (сезон 1, серии 1 из ) LostFilm (Обновляемая)


    • Комментарии (0):

      Информация

      Информация

        Посетители, находящиеся в группе Гости, не могут оставлять комментарии в данной новости.

        ↓ Меню




        ↓ Опрос

        Вы добавили сайт в закладки?
        Да
        Нет


        Top 10 за месяц (Фильмы)