.
Авторизация | Регистрация
Хочешь лучшие торренты? Добавь свой email!
Добавить

Торрент скачать бесплатно

» » Агенты Щ.И.Т. / Agents of S.H.I.E.L.D. (2014) WEB-DLRip (сезон 2, серии 1-16 из 22) LostFilm (oбновляемая) скачать через торрент бесплатно




    Агенты Щ.И.Т. / Agents of S.H.I.E.L.D. (2014) WEB-DLRip (сезон 2, серии 1-16 из 22) LostFilm (oбновляемая) скачать через торрент бесплатно

    Опубликовал: Админ | Дата: 10-04-2015, 04:00 | Просмотров: 217

    Производство: США
    Жанр: фантастика, боевик, драма
    Режиссер: Винс Мисиано

    Актеры
    Кларк Грегг, Минг-На, Бретт Далтон, Хлоя Беннет, Йен де Кестекер, Элизабет Хенстридж, Рон Гласс, Шеннон Лучио, Дж. Аугуст Ричардс, Дэн Сачофф и др.

    Описание

    Агент Фил Колсон (Кларк Грегг) и его коллеги из секретной организации Щ.И.Т. — бойцы невидимого фронта, которые стоят на защите мира и спокойствия жителей Земли. Богатый выбор, сказал кто то из толпы, к чему не понятно. Многое изменилось после вторжения пришельцев в Нью-Йорк. Самое интересное в это истории, что об этом Жириновский ничего не знал. Начали появляться новые супергерои, которые далеко не всегда выступают на стороне добра и справедливости. Кроме того, людям стали доступны новые технологии и даже артефакты внеземного происхождения, которые могут натворить немало бед, если попадут не в те руки. За всем этим следит таинственный Щ.И.Т. и если что-то выйдет из-под контроля, лучшие агенты организации найдут способ ликвидировать угрозу.

    Продолжительность: ~00: 43: 00 серия
    Качество видео: WEB-DLRip
    Перевод: Многоголосый закадровый, профессиональный -LostFilm
    Видеокодек: XviD
    Формат: AVI
    Битрейт видео: ~1150 kb/s
    Размер кадра: 720х400 (16: 9)
    Аудио Rus: (MPEG Layer 3, 48, 0 kHz, 2 ch, 192 kb/s) - многоголосый закадровый
    Общее
    Полное имя : D: Агенты Щ.И.Т. (сезон любимого сериала 2) Agents of S.H.I.E.L.D. (2014) WEB-DLRip - LostFilmMarvels.Agents.of.S.H.I.E.L.D.S02E01.rus.LostFilm.TV.avi
    Формат : AVI
    Формат/Информация : Audio Video Interleave
    Размер файла : 418 Мбайт
    Продолжительность : 43 м.
    Режим общего битрейта : Переменный
    Общий поток : 1354 Кбит/сек
    Программа кодирования : Nandub v1.0rc2
    Библиотека кодирования : Nandub build 1853/release
    Видео
    Идентификатор : 0
    Формат : MPEG-4 Visual
    Профиль формата : Advanced Simple@L5
    Параметр BVOP формата : Нет
    Параметр QPel формата : Нет
    Параметр GMC формата : Без точки перехода
    Параметр матрицы формата : Default (H.263)
    Идентификатор кодека : XVID
    Идентификатор кодека/Подсказка : XviD
    Продолжительность : 43 м.
    Битрейт : 1152 Кбит/сек
    Ширина : 720 пикселей
    Высота : 400 пикселей
    Соотношение сторон : 16: 9
    Частота кадров : 23, 976 кадра/сек
    Цветовое пространство : YUV
    Субдискретизация насыщенности : 4: 2: 0
    Битовая глубина : 8 бит
    Тип развёртки : Прогрессивная
    Метод сжатия : С потерями
    Бит/(Пиксели*Кадры) : 0.167
    Размер потока : 356 Мбайт (85%)
    Библиотека кодирования : XviD 1.2.1 (UTC 2008-12-04)
    Аудио
    Идентификатор : 1
    Формат : MPEG Audio
    Версия формата : Version 1
    Профиль формата : Layer 3
    Режим : Joint stereo
    Расширение режима : MS Stereo
    Идентификатор кодека : 55
    Идентификатор кодека/Подсказка : MP3
    Продолжительность : 43 м.
    Вид битрейта : Переменный
    Битрейт : 192 Кбит/сек
    Каналы : 2 канала
    Частота : 48, 0 КГц
    Метод сжатия : С потерями
    Размер потока : 58, 6 Мбайт (14%)
    Выравнивание : Соединение по промежуткам
    Продолжительность промежутка : 24 мс. (0, 58 видеокадр)
    Время предзагрузки промежутка : 485 мс.
    Библиотека кодирования : LAME3.97b
    Настройки программы : -m j -V 4 -q 3 -lowpass 18.6 --abr 192


    Скриншоты для ознакомления




    Онлайн видео Агенты Щ.И.Т.



    Агенты Щ.И.Т./Agents of S.H.I.E.L.D. (2014) WEB-DLRip (сезон 2, серии 1-16 из 22) LostFilm (oбновляемая)
    загрузка...
    Рейтинг →
     (голосов: 1, оценка 3/5, голосовать можно 1 раз )

    Другие торренты по теме:

  • Халк и агенты СМЭШ (Халк и агенты У.Д.А.Р.) (Сезон 1, Серия: 1-26 из 26) / Hulk and the Agents of S.M.A.S.H. (2013) WEB-DLRip скачать через торрент бесплатно
  • Халк и агенты СМЭШ (Халк и агенты У.Д.А.Р.) (Сезон 2, Серия: 1- из ) / Hulk and the Agents of S.M.A.S.H. (2014) WEB-DLRip (Обновляемая) скачать через торрент бесплатно
  • Халк и агенты СМЭШ (Халк и агенты У.Д.А.Р.) (Сезон 2, Серия: 1-2, 04-06 из ) / Hulk and the Agents of S.M.A.S.H. (2014) WEB-DL [1080p] (Обновляемая) скачать через торрент бесплатно
  • Активы / Агенты / The Assets (2014) WEB-DL [720p] (Сезон 1, Серии 1-8 из 8) HamsterStudio
  • Агенты Щ.И.Т. / Agents of S.H.I.E.L.D. (2014) WEB-DL [H.264 / 720p-LQ] (Сезон 2, серия 1 из ) (LostFilm) (обновляемая)
  • Агенты Щ.И.Т. / Agents of S.H.I.E.L.D. (2014) WEB-DLRip (сезон 2, серии 1 из ) LostFilm (oбновляемая)
  • Агенты Щ.И.Т. (Agents of S.H.I.E.L.D.) / (Сезон 1-2, серии 1-23 из 44) LostFilm (2013-2014) [MP4|720x400] <WEB-DLRip [H.264]>
  • Агенты Щ.И.Т. / Agents of S.H.I.E.L.D. (2014) WEB-DL [H.264 / 1080p-LQ] (Сезон 2, серия 1 из ) (LostFilm) (обновляемая)


    • Комментарии (0):

      Информация

      Информация

        Посетители, находящиеся в группе Гости, не могут оставлять комментарии в данной новости.

        ↓ Меню




        ↓ Опрос

        Вы добавили сайт в закладки?
        Да
        Нет


        Top 10 за месяц (Фильмы)