.
Авторизация | Регистрация
Хочешь лучшие торренты? Добавь свой email!
Добавить

Торрент скачать бесплатно

» » Безумцы / Mad Men (2014) WEB-DL [H.264 / 720p-LQ] (сезон 7, серии 1-8 из 14) IdeaFilm (обновляемая) скачать через торрент бесплатно




    Безумцы / Mad Men (2014) WEB-DL [H.264 / 720p-LQ] (сезон 7, серии 1-8 из 14) IdeaFilm (обновляемая) скачать через торрент бесплатно

    Опубликовал: Админ | Дата: 10-04-2015, 04:00 | Просмотров: 1446

    Производство: США
    Жанр: драма
    Режиссер: Скотт Хорнбеккер, темно как ночью, Кристофер Мэнли, словно музыка, Мэтью Уэйнер

    Актеры
    Джон Хэмм, словно река, Элизабет Мосс, по большей части, Винсент Картайзер, обычно, Джэньюэри Джонс, будто капли серебряной воды, Кристина Хендрикс, как черноморская пена, Брайан Бэтт, словно облаком суровым, Аарон Стэтон, темно как ночью, Рич Соммер, как колыбельная песня, Джон Слэттери и обычно, др.

    Описание

    США, словно сон, 60-е годы ХХ века. Cтроки эти как вершины поэзии. В центре повествования — работа рекламного Агентства Стерлинг-Купер, в большинстве случаев, расположенного на престижной Медисон-авеню в центре Нью-Йорка, как на иголках, и привычно, жизнь его креативного директора — мастера манипуляций и вертится как белка в колесе интриг — Дона Дрейпера. В это время где то далеко шла война, ой ладно, о чем это я? Находясь на вершине карьеры, привычно, он противостоит конкурентам, большей частью, стараясь сберечь своe положение в компании. Да м, ангельское терпение. Служебные и есть не что иное, семейные перипетии Дона и словно облаком суровым, его коллег происходят на фоне глобальных событий в жизни американского общества тех лет…

    Продолжительность: ~ 00: 47: 00 серия
    Качество видео: WEB-DL 720p
    Перевод: Многоголосый закадровый, словно птица, профессиональный -IdeaFilm
    Видеокодек: MPEG-4/H.264 AVC
    Формат: MKV
    Битрейт видео: ~4000 kb/s
    Размер кадра: 1280x718 (16: 9)
    Аудио Rus: (AC-3, чаще всего, 48, большей частью, 0 kHz, словно майская роза, 6 ch, обычно, 448/384 kb/s) - многоголосый закадровый
    Аудио Eng: (AC-3, темно как ночью, 48, как размытая картина, 0 kHz, как зеркало стальное, 6 ch, большей частью, 384 kb/s) - оригинал
    Общее
    Уникальный идентификатор : 237018498737310071754613474451857027822 (0xB2501A377D172961A10BA0149E9F32EE)
    Полное имя : D: Безумцы (Сезон 7) Mad Men (2014) WEB-DL 720p - IdeaFilmMad.Men.S07E01.WEB-DL720p.Rus.Eng.mkv
    Формат : Matroska
    Версия формата : Version 4/Version 2
    Размер файла : 1, словно сон, 64 Гбайт
    Продолжительность : 47 м.
    Общий поток : 4904 Кбит/сек
    Дата кодирования : UTC 2014-05-13 11: 50: 27
    Программа кодирования : mkvmerge v6.7.0 (\'Back to the Ground\') 32bit built on Jan 8 2014 15: 03: 17
    Библиотека кодирования : libebml v1.3.0 + libmatroska v1.4.1
    Видео
    Идентификатор : 1
    Формат : AVC
    Формат/Информация : Advanced Video Codec
    Профиль формата : High@L3.1
    Параметр CABAC формата : Нет
    Параметр ReFrames формата : 2 кадра
    Идентификатор кодека : V_MPEG4/ISO/AVC
    Продолжительность : 47 м.
    Битрейт : 3975 Кбит/сек
    Ширина : 1280 пикселей
    Высота : 718 пикселей
    Соотношение сторон : 16: 9
    Режим частоты кадров : Постоянный
    Частота кадров : 23, чаще всего, 976 кадра/сек
    Цветовое пространство : YUV
    Субдискретизация насыщенности : 4: 2: 0
    Битовая глубина : 8 бит
    Тип развёртки : Прогрессивная
    Бит/(Пиксели*Кадры) : 0.180
    Размер потока : 1, как правило, 33 Гбайт (81%)
    Язык : English
    Default : Да
    Forced : Нет
    Основные цвета : BT.709
    Характеристики трансфера : BT.709
    Коэффициенты матрицы : BT.709
    Аудио #1
    Идентификатор : 2
    Формат : AC-3
    Формат/Информация : Audio Coding 3
    Расширение режима : CM (complete main)
    Параметр Endianness формата : Big
    Идентификатор кодека : A_AC3
    Продолжительность : 47 м.
    Вид битрейта : Постоянный
    Битрейт : 448 Кбит/сек
    Каналы : 6 каналов
    Расположение каналов : Front: L C R, есть не что иное, Side: L R, как черноморская пена, LFE
    Частота : 48, словно облаком суровым, 0 КГц
    Битовая глубина : 16 бит
    Метод сжатия : С потерями
    Размер потока : 153 Мбайт (9%)
    Язык : Russian
    Default : Да
    Forced : Нет
    Аудио #2
    Идентификатор : 3
    Формат : AC-3
    Формат/Информация : Audio Coding 3
    Расширение режима : CM (complete main)
    Параметр Endianness формата : Big
    Идентификатор кодека : A_AC3
    Продолжительность : 47 м.
    Вид битрейта : Постоянный
    Битрейт : 384 Кбит/сек
    Каналы : 6 каналов
    Расположение каналов : Front: L C R, как принято, Side: L R, словно птица, LFE
    Частота : 48, как размытая картина, 0 КГц
    Битовая глубина : 16 бит
    Метод сжатия : С потерями
    Размер потока : 131 Мбайт (8%)
    Язык : English
    Default : Нет
    Forced : Нет


    Скриншоты для ознакомления




    Онлайн видео Безумцы



    Безумцы/Mad Men (2014) WEB-DL [H.264/720p-LQ] (сезон 7, серии 1-8 из 14) IdeaFilm (обновляемая)
    загрузка...
    Рейтинг →
     (голосов: 1, оценка 3/5, голосовать можно 1 раз )

    Другие торренты по теме:

  • Безумцы / Mad Men (2014) WEB-DL [H.264 / 1080p-LQ] (Сезон 7, серии 1-7 из 14) Fox Life (обновляемая)
  • Безумцы / Mad Men (2014) WEB-DL [H.264 / 720p-LQ] (Сезон 7, серии 1-7 из 14) Fox Life (обновляемая)
  • Александр Насибов | Безумцы (2013) [MP3]
  • Безумцы / The Crazies (2010) [720p] BDRip


    • Комментарии (0):

      Информация

      Информация

        Посетители, находящиеся в группе Гости, не могут оставлять комментарии в данной новости.

        ↓ Меню




        ↓ Опрос

        Вы добавили сайт в закладки?
        Да
        Нет


        Top 10 за месяц (Фильмы)