.
Авторизация | Регистрация
Хочешь лучшие торренты? Добавь свой email!
Добавить

Торрент скачать бесплатно

» » Галлиполи / Gallipoli (2015) BDRip (сезон 1, серии 1 из 7) kiitos (обновляемая) скачать через торрент бесплатно




    Галлиполи / Gallipoli (2015) BDRip (сезон 1, серии 1 из 7) kiitos (обновляемая) скачать через торрент бесплатно

    Опубликовал: Админ | Дата: 9-04-2015, 04:00 | Просмотров: 285

    Производство: Австралия, Nine Network Australia
    Жанр: драма, военный
    Режиссер: Глендин Айвин

    Актеры
    Коди Смит-МакФи, Николас Хоуп, Айви Фокс, Эйдан Пульелли, Алекс Цицопулу, Коуди Камерон, Гай О’Доннелл, Дэвид Джон Уоттон, Том Бадж, Джеймс Кэллис и др.

    Описание

    Австралийский сериал-драма о четырех парнях, которые пошли добровольцами в армию и попали на Галлипольский полуостров, где во время Первой мировой войны в 1915-1916 годах проходили тяжелые бои между войсками Антанты и османскими войсками в ходе Дарданелльской операции.

    Дата мировой премьеры: 09 февраля 2015
    Продолжительность: ~01: 17: 00 серия
    Качество видео: BDRip
    Перевод: Двухголосый закадровый, любительский -kiitos
    Автор перевода: Марина Осипова
    Озвучивание: kiitos, Chertenok
    Работа со звуком, сведение: kiitos
    Видеокодек: XviD
    Битрейт видео: ~1610 Kbps
    Размер кадра: 720х400 (16: 9)
    Аудио: MP3, 48.0 KHz, 2 ch, 192 Kbps, CBR
    Код:

    General
    Complete name : F:СериалраздачаGallipoli.S01.BDRip.kiitosGallipoli.part1.BDRip.kiitos.tv.avi
    Format : AVI
    Format/Info : Audio Video Interleave
    File size : 1 000 MiB
    Duration : 1h 17mn
    Overall bit rate : 1 812 Kbps
    Writing application : VirtualDubMod 1.5.10.2 (build 2540/release)
    Writing library : VirtualDubMod build 2540/release
    Video
    ID : 0
    Format : MPEG-4 Visual
    Format profile : Simple@L3
    Format settings, BVOP : Yes
    Format settings, QPel : No
    Format settings, GMC : No warppoints
    Format settings, Matrix : Default (MPEG)
    Codec ID : XVID
    Codec ID/Hint : XviD
    Duration : 1h 17mn
    Bit rate : 1 610 Kbps
    Width : 720 pixels
    Height : 400 pixels
    Display aspect ratio : 16:9
    Frame rate : 25.000 fps
    Color space : YUV
    Chroma subsampling : 4:2:0
    Bit depth : 8 bits
    Scan type : Progressive
    Bits/(Pixel*Frame) : 0.224
    Stream size : 889 MiB (89%)
    Writing library : XviD 1.0.3 (UTC 2004-12-20)
    Audio
    ID : 1
    Format : MPEG Audio
    Format version : Version 1
    Format profile : Layer 3
    Mode : Joint stereo
    Codec ID : 55
    Codec ID/Hint : MP3
    Duration : 1h 17mn
    Bit rate mode : Constant
    Bit rate : 192 Kbps
    Channel(s) : 2 channels
    Sampling rate : 48.0 KHz
    Stream size : 106 MiB (11%)
    Alignment : Aligned on interleaves
    Interleave, duration : 40 ms (1.00 video frame)
    Interleave, preload duration : 504 ms


    Скриншоты для ознакомления




    Онлайн видео Галлиполи



    Галлиполи/Gallipoli (2015) BDRip (сезон 1, серии 1 из 7) kiitos (обновляемая)
    загрузка...
    Рейтинг →
     (голосов: 1, оценка 4/5, голосовать можно 1 раз )

    Другие торренты по теме:

  • Галлиполи / Gallipoli (2015) WEB-DLRip (сезон 1, серии 1 из 7) BaibaKo (обновляемая) скачать через торрент бесплатно
  • Галлиполи / Gallipoli (2015) BDRip [H.264 / 720p] (Сезон 1, серии 1-4 из 7) (BaibaKo) (обновляемая) скачать через торрент бесплатно
  • Владимир Даватц | На Москву. Галлиполи (2017) [MP3]


    • Комментарии (0):

      Информация

      Информация

        Посетители, находящиеся в группе Гости, не могут оставлять комментарии в данной новости.

        ↓ Меню




        ↓ Опрос

        Вы добавили сайт в закладки?
        Да
        Нет


        Top 10 за месяц (Фильмы)