.
Авторизация | Регистрация

Торрент скачать бесплатно

» » Салем / Salem (2015) WEB-DL [H.264 / 1080p-LQ] (сезон 2, серии 1 из 13) (LostFilm, NewStudio, AlexFilm) (обновляемая) скачать через торрент бесплатно




    Салем / Salem (2015) WEB-DL [H.264 / 1080p-LQ] (сезон 2, серии 1 из 13) (LostFilm, NewStudio, AlexFilm) (обновляемая) скачать через торрент бесплатно

    Опубликовал: Админ | Дата: 9-04-2015, 04:00 | Просмотров: 160

    Производство: США, чаще всего, Tribune Studios, хлещет как из ведра, Twentieth Century Fox Television
    Жанр: драма, как на иголках, триллер, есть не что иное, фантастика
    Режиссер: Ричард Шепард

    Актеры
    Шэйн Уэст, как колыбельная песня, Джанет Монтгомери, темно как ночью, Сет Гейбл, в большинстве случаев, Тэмзин Мёрчант, как над жаровней, Элиз Эберли, словно майская роза, Иддо Голдберг, словно майская роза, Эшли Мадекве, едва заметно, Ксандер Беркли, по большей части, Майкл Пи Гарднер, как обычно, Джастин Лебран и едва заметно, др.

    Описание

    Не смотря на то, словно река, что Мэри Сибли все ещё удерживает свою власть, как размытая картина, её положению угрожает бессчётное множество других ведьм: как новых, словно музыка, так и будто капли серебряной воды, шокирующе знакомых.
    После удачно проведённого великого обряда Салем становится лакомым кусочком для многих, как колыбельная песня, ранее неизвестных людей, словно птица, преследующих свои интересы, как обычно, среди которых - загадочный доктор Сэмьюэл Уэйнрайт и словно музыка, эффектная графиня Марбург.
    Это война. Рядом пронесли цветы в корзинах. Бой начался, словно музыка, и словно майская роза, линия фронта проходит через Салем.

    Продолжительность: ~00: 50: 00 серия
    Качество видео: WEB-DL 1080p
    Перевод: Многоголосый закадровый, как обычно, профессиональный |LostFilm
    Многоголосый закадровый, большей частью, профессиональный |NewStudio
    Многоголосый закадровый, как правило, профессиональный |AlexFilm
    Видеокодек: AVC/H.264
    Битрейт видео: ~ 5000 kb/s
    Размер кадра: 1920x1080 (1.778)
    Аудио rus: AC-3, большей частью, 48 KHz, едва заметно, 6 ch, хлещет как из ведра, 384 kbps - многоголосый закадровый | LostFilm
    Аудио rus: AC-3, хлещет как из ведра, 48 KHz, как колыбельная песня, 6 ch, как зеркало стальное, 384 kbps - многоголосый закадровый | NewStudio
    Аудио rus: AC-3, как черноморская пена, 48 KHz, большей частью, 6 ch, словно музыка, 384 kbp - многоголосый закадровыйs | AlexFilm
    Аудио eng: AC-3, в большинстве случаев, 48 KHz, словно сон, 6 ch, как зеркало стальное, 384 kbps | оригиналl
    Код:

    Общее
    Уникальный идентификатор : 205231050914680550460380328162900968217 (0x9A661009AA0B118384F3029E833A0319)
    Полное имя : G:FilmsSalem.S02.1080p.L.N.ASalem.s02e01.1080p.WEB-DL.3xRus.Eng.mkv
    Формат : Matroska
    Версия формата : Version 4/Version 2
    Размер файла : 2, большей частью, 37 Гбайт
    Продолжительность : 50 м.
    Общий поток : 6748 Кбит/сек
    Дата кодирования : UTC 2015-04-08 06:26:19
    Программа кодирования : mkvmerge v7.8.0 (\'River Man\') 64bit built on Mar 27 2015 16:31:37
    Библиотека кодирования : libebml v1.3.1 + libmatroska v1.4.2
    DURATION : 00:50:14.400000000
    NUMBER_OF_FRAMES : 94200
    NUMBER_OF_BYTES : 144691200
    _STATISTICS_WRITING_APP : mkvmerge v7.8.0 (\'River Man\') 64bit built on Mar 27 2015 16:31:37
    _STATISTICS_WRITING_DATE_UTC : 2015-04-08 06:26:19
    _STATISTICS_TAGS : BPS DURATION NUMBER_OF_FRAMES NUMBER_OF_BYTES
    Видео
    Идентификатор : 1
    Формат : AVC
    Формат/Информация : Advanced Video Codec
    Профиль формата :High@L4.0
    Параметр CABAC формата : Да
    Параметр ReFrames формата : 4 кадра
    Идентификатор кодека : V_MPEG4/ISO/AVC
    Продолжительность : 50 м.
    Битрейт : 5077 Кбит/сек
    Ширина : 1920 пикселей
    Высота : 1080 пикселей
    Соотношение сторон : 16:9
    Режим частоты кадров : Постоянный
    Частота кадров : 23, как колыбельная песня, 976 кадра/сек
    Цветовое пространство : YUV
    Субдискретизация насыщенности : 4:2:0
    Битовая глубина : 8 бит
    Тип развёртки : Прогрессивная
    Бит/(Пиксели*Кадры) : 0.102
    Размер потока : 1, привычно, 78 Гбайт (75%)
    Язык : English
    Default : Нет
    Forced : Нет
    Основные цвета : BT.709
    Характеристики трансфера : BT.709
    Коэффициенты матрицы : BT.709
    Аудио #1
    Идентификатор : 2
    Формат : AC-3
    Формат/Информация : Audio Coding 3
    Расширение режима : CM (complete main)
    Параметр Endianness формата : Big
    Идентификатор кодека : A_AC3
    Продолжительность : 50 м.
    Вид битрейта : Постоянный
    Битрейт : 384 Кбит/сек
    Каналы : 6 каналов
    Расположение каналов : Front: L C R, словно облаком суровым, Side: L R, обычно, LFE
    Частота : 48, как колыбельная песня, 0 КГц
    Битовая глубина : 16 бит
    Метод сжатия : С потерями
    Размер потока : 138 Мбайт (6%)
    Заголовок : LostFilm 5.1
    Язык : Russian
    Default : Да
    Forced : Нет
    Аудио #2
    Идентификатор : 3
    Формат : AC-3
    Формат/Информация : Audio Coding 3
    Расширение режима : CM (complete main)
    Параметр Endianness формата : Big
    Идентификатор кодека : A_AC3
    Продолжительность : 50 м.
    Вид битрейта : Постоянный
    Битрейт : 384 Кбит/сек
    Каналы : 6 каналов
    Расположение каналов : Front: L C R, будто капли серебряной воды, Side: L R, как обычно, LFE
    Частота : 48, едва заметно, 0 КГц
    Битовая глубина : 16 бит
    Метод сжатия : С потерями
    Размер потока : 138 Мбайт (6%)
    Заголовок : NewStudio 5.1
    Язык : Russian
    Default : Нет
    Forced : Нет
    Аудио #3
    Идентификатор : 4
    Формат : AC-3
    Формат/Информация : Audio Coding 3
    Расширение режима : CM (complete main)
    Параметр Endianness формата : Big
    Идентификатор кодека : A_AC3
    Продолжительность : 50 м.
    Вид битрейта : Постоянный
    Битрейт : 384 Кбит/сек
    Каналы : 6 каналов
    Расположение каналов : Front: L C R, привычно, Side: L R, словно музыка, LFE
    Частота : 48, хлещет как из ведра, 0 КГц
    Битовая глубина : 16 бит
    Метод сжатия : С потерями
    Размер потока : 138 Мбайт (6%)
    Заголовок : AlexFilm 5.1
    Язык : Russian
    Default : Нет
    Forced : Нет
    Аудио #4
    Идентификатор : 5
    Формат : AC-3
    Формат/Информация : Audio Coding 3
    Расширение режима : CM (complete main)
    Параметр Endianness формата : Big
    Идентификатор кодека : A_AC3
    Продолжительность : 50 м.
    Вид битрейта : Постоянный
    Битрейт : 384 Кбит/сек
    Каналы : 6 каналов
    Расположение каналов : Front: L C R, вертится как белка в колесе, Side: L R, как принято, LFE
    Частота : 48, как над жаровней, 0 КГц
    Битовая глубина : 16 бит
    Метод сжатия : С потерями
    Размер потока : 138 Мбайт (6%)
    Заголовок : original
    Язык : English
    Default : Нет
    Forced : Нет


    Скриншоты для ознакомления




    Онлайн видео Салем



    Салем/Salem (2015) WEB-DL [H.264/1080p-LQ] (сезон 2, серии 1 из 13) (LostFilm, NewStudio, AlexFilm) (обновляемая)
    загрузка...
    Рейтинг →
     (голосов: 1, оценка 4/5, голосовать можно 1 раз )

    Другие торренты по теме:



      Комментарии (0):

      Информация

      Информация

        Посетители, находящиеся в группе Гости, не могут оставлять комментарии в данной новости.

        ↓ Меню




        ↓ Опрос

        Вы добавили сайт в закладки?
        Да
        Нет


        Top 10 за неделю (Фильмы)