.
Авторизация | Регистрация
Хочешь лучшие торренты? Добавь свой email!
Добавить

Торрент скачать бесплатно

» » Салем / Salem (2015) WEB-DLRip (сезон 2, серии 1 из 13) AlexFilm (обновляемая) скачать через торрент бесплатно




    Салем / Salem (2015) WEB-DLRip (сезон 2, серии 1 из 13) AlexFilm (обновляемая) скачать через торрент бесплатно

    Опубликовал: Админ | Дата: 8-04-2015, 04:00 | Просмотров: 156

    Производство: США, Tribune Studios, Twentieth Century Fox Television
    Жанр: фантастика, триллер, драма
    Режиссер: Ричард Шепард
    В ролях: Шэйн Уэст, Джанет Монтгомери, Эжур Дэун, Моргана Шоу, Сет Гейбл, Ксандер Беркли, Эшли Мадекве, Элиз Эберли, Джон Артур, Кристофер Берри и др.

    Описание фильма

    Не смотря на то, что Мэри Сибли все ещё удерживает свою власть, её положению угрожает бессчётное множество других ведьм: как новых, так и шокирующе знакомых.
    После удачно проведённого великого обряда Салем становится лакомым кусочком для многих, ранее неизвестных людей, преследующих свои интересы, среди которых - загадочный доктор Сэмьюэл Уэйнрайт и эффектная графиня Марбург.
    Это война. Бой начался, и линия фронта проходит через Салем.

    Продолжительность: ~00: 50: 00 серия
    Качество видео: WEB-DLRip
    Перевод: Многоголосый закадровый, профессиональный -AlexFilm
    Автор перевода: Константин Кривоногов
    Озвучка: Ирина Воронова, Татьяна Манетина, Александр Воронов, Михаил Суслов, Владимир Курдов
    Монтаж и сведение звука: Михаил Шорыгин
    Видеокодек: XviD
    Формат: AVI
    Битрейт видео: ~1250 kb/s
    Размер кадра: 720х400 (16: 9)
    Аудио Rus: (MPEG Layer 3, 48, 0 kHz, 2 ch, 128 kb/s) - многоголосый закадровый
    Аудио Eng: (MPEG Layer 3, 48, 0 kHz, 2 ch, 128 kb/s) - оригинал
    Общее
    Полное имя : D: Салем (сезон любимого сериала 2) Salem (2015) WEB-DLRip - AlexFilmSalem.s02e01.WEB-DLRip.Rus.Eng.AlexFilm.avi
    Формат : AVI
    Формат/Информация : Audio Video Interleave
    Размер файла : 550 Мбайт
    Продолжительность : 50 м.
    Общий поток : 1527 Кбит/сек
    Название фильма : Salem 2x01 @ AlexFilm
    Программа кодирования : VirtualDubMod 1.5.10.2 (build 2540/release)
    Библиотека кодирования : VirtualDubMod build 2540/release
    Видео
    Идентификатор : 0
    Формат : MPEG-4 Visual
    Профиль формата : Advanced Simple@L5
    Параметр BVOP формата : Нет
    Параметр QPel формата : Нет
    Параметр GMC формата : Без точки перехода
    Параметр матрицы формата : Default (H.263)
    Идентификатор кодека : XVID
    Идентификатор кодека/Подсказка : XviD
    Продолжительность : 50 м.
    Битрейт : 1257 Кбит/сек
    Ширина : 720 пикселей
    Высота : 400 пикселей
    Соотношение сторон : 16: 9
    Частота кадров : 23, 976 кадра/сек
    Цветовое пространство : YUV
    Субдискретизация насыщенности : 4: 2: 0
    Битовая глубина : 8 бит
    Тип развёртки : Прогрессивная
    Метод сжатия : С потерями
    Бит/(Пиксели*Кадры) : 0.182
    Размер потока : 453 Мбайт (82%)
    Библиотека кодирования : XviD 73
    Аудио #1
    Идентификатор : 1
    Формат : MPEG Audio
    Версия формата : Version 1
    Профиль формата : Layer 3
    Режим : Joint stereo
    Расширение режима : MS Stereo
    Идентификатор кодека : 55
    Идентификатор кодека/Подсказка : MP3
    Продолжительность : 50 м.
    Вид битрейта : Постоянный
    Битрейт : 128 Кбит/сек
    Каналы : 2 канала
    Частота : 48, 0 КГц
    Метод сжатия : С потерями
    Размер потока : 46, 1 Мбайт (8%)
    Выравнивание : Соединение по промежуткам
    Продолжительность промежутка : 42 мс. (1, 00 видеокадр)
    Время предзагрузки промежутка : 504 мс.
    Заголовок : Russian (AlexFilm)
    Библиотека кодирования : LAME3.99r
    Настройки программы : -m j -V 4 -q 3 -lowpass 18 -b 128
    Аудио #2
    Идентификатор : 2
    Формат : MPEG Audio
    Версия формата : Version 1
    Профиль формата : Layer 3
    Режим : Joint stereo
    Расширение режима : MS Stereo
    Идентификатор кодека : 55
    Идентификатор кодека/Подсказка : MP3
    Продолжительность : 50 м.
    Вид битрейта : Постоянный
    Битрейт : 128 Кбит/сек
    Каналы : 2 канала
    Частота : 48, 0 КГц
    Метод сжатия : С потерями
    Размер потока : 46, 1 Мбайт (8%)
    Выравнивание : Соединение по промежуткам
    Продолжительность промежутка : 42 мс. (1, 00 видеокадр)
    Время предзагрузки промежутка : 504 мс.
    Заголовок : English
    Библиотека кодирования : LAME3.90.3


    Скриншоты для ознакомления




    Онлайн видео Салем



    Салем/Salem (2015) WEB-DLRip (сезон 2, серии 1 из 13) AlexFilm (обновляемая)
    загрузка...
    Рейтинг →
     (голосов: 1, оценка 4/5, голосовать можно 1 раз )

    Другие торренты по теме:

  • Салем / Salem (2015) WEB-DLRip (сезон 2, серии 1 из ) NewStudio (обновляемая) скачать через торрент бесплатно
  • Салем / Salem (2015) WEB-DLRip (сезон 2, серии 1 из 13) LostFilm (обновляемая) скачать через торрент бесплатно
  • Салем / Salem (2015) WEB-DL [H.264 / 720p-LQ] (сезон 2, серии 1 из 13) (AlexFilm) (обновляемая) скачать через торрент бесплатно
  • Салем / Salem (2015) WEB-DL [H.264 / 1080p-LQ] (сезон 2, серии 1 из 13) (LostFilm, NewStudio, AlexFilm) (обновляемая) скачать через торрент бесплатно
  • Салем / Salem (2015) WEB-DLRip [H.264] (Сезон 2, серии 1-6 из 13) BaibaKo [MP4|720x400] скачать через торрент бесплатно
  • Салем / Salem (2016) WEB-DLRip (Сезон 3, Серии 01-03 из 13) LostFilm (обновляемая)
  • Салем / Salem (2016) WEB-DL [H.264 / 720p-LQ] (сезон 3, серии 01-03 из 13) LostFilm (обновляемая)
  • Салем / Salem (2016) WEB-DL [H.264 / 720p-LQ] (сезон 3, серии 01-03 из 13) NewStudio (обновляемая)


    • Комментарии (0):

      Информация

      Информация

        Посетители, находящиеся в группе Гости, не могут оставлять комментарии в данной новости.

        ↓ Меню




        ↓ Опрос

        Вы добавили сайт в закладки?
        Да
        Нет


        Top 10 за месяц (Фильмы)