.
Авторизация | Регистрация
Хочешь лучшие торренты? Добавь свой email!
Добавить

Торрент скачать бесплатно

» » Салем / Salem (2015) WEB-DLRip (сезон 2, серии 1 из 13) LostFilm (обновляемая) скачать через торрент бесплатно




    Салем / Salem (2015) WEB-DLRip (сезон 2, серии 1 из 13) LostFilm (обновляемая) скачать через торрент бесплатно

    Опубликовал: Админ | Дата: 8-04-2015, 04:00 | Просмотров: 246

    Производство: США, Tribune Studios, Twentieth Century Fox Television
    Жанр: фантастика, триллер, драма
    Режиссер: Ричард Шепард
    В ролях: Шэйн Уэст, Джанет Монтгомери, Сет Гейбл, Тэмзин Мёрчант, Элиз Эберли, Иддо Голдберг, Эшли Мадекве, Ксандер Беркли, Майкл Пи Гарднер, Джастин Лебран и др.

    Описание

    Не смотря на то, что Мэри Сибли все ещё удерживает свою власть, её положению угрожает бессчётное множество других ведьм: как новых, так и шокирующе знакомых.
    После удачно проведённого великого обряда Салем становится лакомым кусочком для многих, ранее неизвестных людей, преследующих свои интересы, среди которых - загадочный доктор Сэмьюэл Уэйнрайт и эффектная графиня Марбург.
    Это война. Бой начался, и линия фронта проходит через Салем.

    Продолжительность: ~00: 50: 00 серия
    Качество видео: WEB-DLRip
    Перевод: Многоголосый закадровый, профессиональный -LostFilm
    Видеокодек: XviD
    Формат: AVI
    Битрейт видео: ~1000 kb/s
    Размер кадра: 720х400 (16: 9)
    Аудио Rus: (MPEG Layer 3, 48, 0 kHz, 2 ch, 192 kb/s) - многоголосый закадровый
    Общее
    Полное имя : D: Салем (сезон любимого сериала 2) Salem (2015) WEB-DLRip - LostFilmSalem.S02E01.rus.LostFilm.TV.avi
    Формат : AVI
    Формат/Информация : Audio Video Interleave
    Размер файла : 417 Мбайт
    Продолжительность : 50 м.
    Режим общего битрейта : Переменный
    Общий поток : 1156 Кбит/сек
    Программа кодирования : Nandub v1.0rc2
    Библиотека кодирования : Nandub build 1853/release
    Видео
    Идентификатор : 0
    Формат : MPEG-4 Visual
    Профиль формата : Advanced Simple@L5
    Параметр BVOP формата : Нет
    Параметр QPel формата : Нет
    Параметр GMC формата : Без точки перехода
    Параметр матрицы формата : Default (H.263)
    Идентификатор кодека : XVID
    Идентификатор кодека/Подсказка : XviD
    Продолжительность : 50 м.
    Битрейт : 956 Кбит/сек
    Ширина : 720 пикселей
    Высота : 400 пикселей
    Соотношение сторон : 16: 9
    Частота кадров : 23, 976 кадра/сек
    Цветовое пространство : YUV
    Субдискретизация насыщенности : 4: 2: 0
    Битовая глубина : 8 бит
    Тип развёртки : Прогрессивная
    Метод сжатия : С потерями
    Бит/(Пиксели*Кадры) : 0.138
    Размер потока : 345 Мбайт (83%)
    Библиотека кодирования : XviD 1.2.1 (UTC 2008-12-04)
    Аудио
    Идентификатор : 1
    Формат : MPEG Audio
    Версия формата : Version 1
    Профиль формата : Layer 3
    Режим : Joint stereo
    Расширение режима : MS Stereo
    Идентификатор кодека : 55
    Идентификатор кодека/Подсказка : MP3
    Продолжительность : 50 м.
    Вид битрейта : Переменный
    Битрейт : 192 Кбит/сек
    Каналы : 2 канала
    Частота : 48, 0 КГц
    Метод сжатия : С потерями
    Размер потока : 67, 7 Мбайт (16%)
    Выравнивание : Соединение по промежуткам
    Продолжительность промежутка : 24 мс. (0, 58 видеокадр)
    Время предзагрузки промежутка : 482 мс.
    Библиотека кодирования : LAME3.97b
    Настройки программы : -m j -V 4 -q 3 -lowpass 18.6 --abr 192


    Скриншоты для ознакомления




    Онлайн видео Салем



    Салем/Salem (2015) WEB-DLRip (сезон 2, серии 1 из 13) LostFilm (обновляемая)
    загрузка...
    Рейтинг →
     (голосов: 1, оценка 3/5, голосовать можно 1 раз )

    Другие торренты по теме:

  • Салем / Salem (2015) WEB-DLRip (сезон 2, серии 1 из ) NewStudio (обновляемая) скачать через торрент бесплатно
  • Салем / Salem (2015) WEB-DL [H.264 / 720p-LQ] (сезон 2, серии 1 из 13) (AlexFilm) (обновляемая) скачать через торрент бесплатно
  • Салем / Salem (2015) WEB-DLRip (сезон 2, серии 1 из 13) AlexFilm (обновляемая) скачать через торрент бесплатно
  • Салем / Salem (2015) WEB-DL [H.264 / 1080p-LQ] (сезон 2, серии 1 из 13) (LostFilm, NewStudio, AlexFilm) (обновляемая) скачать через торрент бесплатно
  • Салем / Salem (2015) WEB-DLRip [H.264] (Сезон 2, серии 1-6 из 13) BaibaKo [MP4|720x400] скачать через торрент бесплатно
  • Салем / Salem (2016) WEB-DLRip (Сезон 3, Серии 01-03 из 13) LostFilm (обновляемая)
  • Салем / Salem (2016) WEB-DL [H.264 / 720p-LQ] (сезон 3, серии 01-03 из 13) LostFilm (обновляемая)
  • Салем / Salem (2016) WEB-DL [H.264 / 720p-LQ] (сезон 3, серии 01-03 из 13) NewStudio (обновляемая)


    • Комментарии (0):

      Информация

      Информация

        Посетители, находящиеся в группе Гости, не могут оставлять комментарии в данной новости.

        ↓ Меню




        ↓ Опрос

        Вы добавили сайт в закладки?
        Да
        Нет


        Top 10 за месяц (Фильмы)